  0
SECTION
  2
HEADER
  9
$ACADVER
  1
AC1015
  9
$ACADMAINTVER
 70
    20
  9
$DWGCODEPAGE
  3
ANSI_932
  9
$INSBASE
 10
0.0
 20
0.0
 30
0.0
  9
$EXTMIN
 10
364.7367431686863
 20
306.8074954015638
 30
0.0
  9
$EXTMAX
 10
415.1700870749303
 20
326.2612452601386
 30
0.0
  9
$LIMMIN
 10
0.0
 20
0.0
  9
$LIMMAX
 10
12.0
 20
9.0
  9
$ORTHOMODE
 70
     0
  9
$REGENMODE
 70
     1
  9
$FILLMODE
 70
     1
  9
$QTEXTMODE
 70
     0
  9
$MIRRTEXT
 70
     0
  9
$LTSCALE
 40
1.0
  9
$ATTMODE
 70
     1
  9
$TEXTSIZE
 40
0.2
  9
$TRACEWID
 40
0.05
  9
$TEXTSTYLE
  7
FontStyle1
  9
$CLAYER
  8
Dimension
  9
$CELTYPE
  6
ByLayer
  9
$CECOLOR
 62
   256
  9
$CELTSCALE
 40
1.0
  9
$DISPSILH
 70
     0
  9
$DIMSCALE
 40
1.0
  9
$DIMASZ
 40
0.8
  9
$DIMEXO
 40
0.5
  9
$DIMDLI
 40
7.0
  9
$DIMRND
 40
0.0
  9
$DIMDLE
 40
0.0
  9
$DIMEXE
 40
0.5
  9
$DIMTP
 40
0.0
  9
$DIMTM
 40
0.0
  9
$DIMTXT
 40
1.0
  9
$DIMCEN
 40
0.3
  9
$DIMTSZ
 40
0.0
  9
$DIMTOL
 70
     0
  9
$DIMLIM
 70
     0
  9
$DIMTIH
 70
     0
  9
$DIMTOH
 70
     0
  9
$DIMSE1
 70
     0
  9
$DIMSE2
 70
     0
  9
$DIMTAD
 70
     1
  9
$DIMZIN
 70
     9
  9
$DIMBLK
  1
Open30
  9
$DIMASO
 70
     1
  9
$DIMSHO
 70
     1
  9
$DIMPOST
  1

  9
$DIMAPOST
  1

  9
$DIMALT
 70
     0
  9
$DIMALTD
 70
     3
  9
$DIMALTF
 40
0.03937007874016
  9
$DIMLFAC
 40
1.0
  9
$DIMTOFL
 70
     1
  9
$DIMTVP
 40
0.0
  9
$DIMTIX
 70
     0
  9
$DIMSOXD
 70
     0
  9
$DIMSAH
 70
     0
  9
$DIMBLK1
  1

  9
$DIMBLK2
  1

  9
$DIMSTYLE
  2
DimStyle1
  9
$DIMCLRD
 70
     0
  9
$DIMCLRE
 70
     0
  9
$DIMCLRT
 70
     0
  9
$DIMTFAC
 40
1.0
  9
$DIMGAP
 40
0.5
  9
$DIMJUST
 70
     0
  9
$DIMSD1
 70
     0
  9
$DIMSD2
 70
     0
  9
$DIMTOLJ
 70
     0
  9
$DIMTZIN
 70
     8
  9
$DIMALTZ
 70
     0
  9
$DIMALTTZ
 70
     0
  9
$DIMUPT
 70
     0
  9
$DIMDEC
 70
     2
  9
$DIMTDEC
 70
     2
  9
$DIMALTU
 70
     2
  9
$DIMALTTD
 70
     3
  9
$DIMTXSTY
  7
FontStyle1
  9
$DIMAUNIT
 70
     0
  9
$DIMADEC
 70
     2
  9
$DIMALTRND
 40
0.0
  9
$DIMAZIN
 70
     2
  9
$DIMDSEP
 70
    46
  9
$DIMATFIT
 70
     3
  9
$DIMFRAC
 70
     0
  9
$DIMLDRBLK
  1
Open30
  9
$DIMLUNIT
 70
     2
  9
$DIMLWD
 70
    -2
  9
$DIMLWE
 70
    -2
  9
$DIMTMOVE
 70
     0
  9
$LUNITS
 70
     2
  9
$LUPREC
 70
     4
  9
$SKETCHINC
 40
0.1
  9
$FILLETRAD
 40
0.0
  9
$AUNITS
 70
     0
  9
$AUPREC
 70
     0
  9
$MENU
  1
.
  9
$ELEVATION
 40
0.0
  9
$PELEVATION
 40
0.0
  9
$THICKNESS
 40
0.0
  9
$LIMCHECK
 70
     0
  9
$CHAMFERA
 40
0.0
  9
$CHAMFERB
 40
0.0
  9
$CHAMFERC
 40
0.0
  9
$CHAMFERD
 40
0.0
  9
$SKPOLY
 70
     0
  9
$TDCREATE
 40
2455622.734854733
  9
$TDUCREATE
 40
2455622.359854733
  9
$TDUPDATE
 40
2455888.414548240
  9
$TDUUPDATE
 40
2455888.039548241
  9
$TDINDWG
 40
0.7188855556
  9
$TDUSRTIMER
 40
0.7188715394
  9
$USRTIMER
 70
     1
  9
$ANGBASE
 50
0.0
  9
$ANGDIR
 70
     0
  9
$PDMODE
 70
     0
  9
$PDSIZE
 40
0.0
  9
$PLINEWID
 40
0.0
  9
$SPLFRAME
 70
     0
  9
$SPLINETYPE
 70
     6
  9
$SPLINESEGS
 70
     8
  9
$HANDSEED
  5
23AD
  9
$SURFTAB1
 70
     6
  9
$SURFTAB2
 70
     6
  9
$SURFTYPE
 70
     6
  9
$SURFU
 70
     6
  9
$SURFV
 70
     6
  9
$UCSBASE
  2

  9
$UCSNAME
  2

  9
$UCSORG
 10
0.0
 20
0.0
 30
0.0
  9
$UCSXDIR
 10
1.0
 20
0.0
 30
0.0
  9
$UCSYDIR
 10
0.0
 20
1.0
 30
0.0
  9
$UCSORTHOREF
  2

  9
$UCSORTHOVIEW
 70
     0
  9
$UCSORGTOP
 10
0.0
 20
0.0
 30
0.0
  9
$UCSORGBOTTOM
 10
0.0
 20
0.0
 30
0.0
  9
$UCSORGLEFT
 10
0.0
 20
0.0
 30
0.0
  9
$UCSORGRIGHT
 10
0.0
 20
0.0
 30
0.0
  9
$UCSORGFRONT
 10
0.0
 20
0.0
 30
0.0
  9
$UCSORGBACK
 10
0.0
 20
0.0
 30
0.0
  9
$PUCSBASE
  2

  9
$PUCSNAME
  2

  9
$PUCSORG
 10
0.0
 20
0.0
 30
0.0
  9
$PUCSXDIR
 10
1.0
 20
0.0
 30
0.0
  9
$PUCSYDIR
 10
0.0
 20
1.0
 30
0.0
  9
$PUCSORTHOREF
  2

  9
$PUCSORTHOVIEW
 70
     0
  9
$PUCSORGTOP
 10
0.0
 20
0.0
 30
0.0
  9
$PUCSORGBOTTOM
 10
0.0
 20
0.0
 30
0.0
  9
$PUCSORGLEFT
 10
0.0
 20
0.0
 30
0.0
  9
$PUCSORGRIGHT
 10
0.0
 20
0.0
 30
0.0
  9
$PUCSORGFRONT
 10
0.0
 20
0.0
 30
0.0
  9
$PUCSORGBACK
 10
0.0
 20
0.0
 30
0.0
  9
$USERI1
 70
     0
  9
$USERI2
 70
     0
  9
$USERI3
 70
     0
  9
$USERI4
 70
     0
  9
$USERI5
 70
     0
  9
$USERR1
 40
0.0
  9
$USERR2
 40
0.0
  9
$USERR3
 40
0.0
  9
$USERR4
 40
0.0
  9
$USERR5
 40
0.0
  9
$WORLDVIEW
 70
     1
  9
$SHADEDGE
 70
     3
  9
$SHADEDIF
 70
    70
  9
$TILEMODE
 70
     0
  9
$MAXACTVP
 70
    64
  9
$PINSBASE
 10
0.0
 20
0.0
 30
0.0
  9
$PLIMCHECK
 70
     0
  9
$PEXTMIN
 10
-10.80282583972723
 20
-5.800158011753751
 30
-0.0015258207003583
  9
$PEXTMAX
 10
286.2153022052079
 20
204.2126600028565
 30
0.0000000349246037
  9
$PLIMMIN
 10
-10.79376220703125
 20
-5.793749809265136
  9
$PLIMMAX
 10
286.2062377929687
 20
204.2062501907349
  9
$UNITMODE
 70
     0
  9
$VISRETAIN
 70
     1
  9
$PLINEGEN
 70
     0
  9
$PSLTSCALE
 70
     1
  9
$TREEDEPTH
 70
  3020
  9
$CMLSTYLE
  2
Standard
  9
$CMLJUST
 70
     0
  9
$CMLSCALE
 40
1.0
  9
$PROXYGRAPHICS
 70
     1
  9
$MEASUREMENT
 70
     0
  9
$CELWEIGHT
370
    -1
  9
$ENDCAPS
280
     0
  9
$JOINSTYLE
280
     0
  9
$LWDISPLAY
290
     0
  9
$INSUNITS
 70
     1
  9
$HYPERLINKBASE
  1

  9
$STYLESHEET
  1

  9
$XEDIT
290
     1
  9
$CEPSNTYPE
380
     0
  9
$PSTYLEMODE
290
     1
  9
$FINGERPRINTGUID
  2
{82DD2A22-D98B-4931-83E1-60665FE557E1}
  9
$VERSIONGUID
  2
{B9EB4B9F-E732-4117-871F-4642A3CCF3A7}
  9
$EXTNAMES
290
     1
  9
$PSVPSCALE
 40
0.0
  9
$OLESTARTUP
290
     0
  0
ENDSEC
  0
SECTION
  2
CLASSES
  0
CLASS
  1
ACDBDICTIONARYWDFLT
  2
AcDbDictionaryWithDefault
  3
ObjectDBX Classes
 90
        0
280
     0
281
     0
  0
CLASS
  1
DICTIONARYVAR
  2
AcDbDictionaryVar
  3
ObjectDBX Classes
 90
        0
280
     0
281
     0
  0
CLASS
  1
TABLESTYLE
  2
AcDbTableStyle
  3
ObjectDBX Classes
 90
     4095
280
     0
281
     0
  0
CLASS
  1
MATERIAL
  2
AcDbMaterial
  3
ObjectDBX Classes
 90
     1024
280
     0
281
     0
  0
CLASS
  1
VISUALSTYLE
  2
AcDbVisualStyle
  3
ObjectDBX Classes
 90
     4095
280
     0
281
     0
  0
CLASS
  1
SORTENTSTABLE
  2
AcDbSortentsTable
  3
ObjectDBX Classes
 90
        0
280
     0
281
     0
  0
CLASS
  1
ACAD_TABLE
  2
AcDbTable
  3
ObjectDBX Classes
 90
    33793
280
     0
281
     1
  0
CLASS
  1
DIMASSOC
  2
AcDbDimAssoc
  3
"AcDbDimAssoc|Product Desc:     AcDim ARX App For Dimension|Company:          Autodesk, Inc.|WEB Address:      www.autodesk.com"
 90
    32768
280
     0
281
     0
  0
CLASS
  1
ACAD_EVALUATION_GRAPH
  2
AcDbEvalGraph
  3
ObjectDBX Classes
 90
     1153
280
     0
281
     0
  0
CLASS
  1
ACAECUSTOBJ
  2
AcAeEditorObj
  3
AcAeEditorObj
 90
     1024
280
     0
281
     0
  0
CLASS
  1
ACDB_DYNAMICBLOCKPURGEPREVENTER_VERSION
  2
AcDbDynamicBlockPurgePreventer
  3
ObjectDBX Classes
 90
     1153
280
     0
281
     0
  0
CLASS
  1
ACDB_BLOCKREPRESENTATION_DATA
  2
AcDbBlockRepresentationData
  3
ObjectDBX Classes
 90
    33921
280
     0
281
     0
  0
CLASS
  1
ACDBPLACEHOLDER
  2
AcDbPlaceHolder
  3
ObjectDBX Classes
 90
        0
280
     0
281
     0
  0
CLASS
  1
LAYOUT
  2
AcDbLayout
  3
ObjectDBX Classes
 90
        0
280
     0
281
     0
  0
ENDSEC
  0
SECTION
  2
TABLES
  0
TABLE
  2
VPORT
  5
8
330
0
100
AcDbSymbolTable
 70
     1
  0
VPORT
  5
94
330
8
100
AcDbSymbolTableRecord
100
AcDbViewportTableRecord
  2
*Active
 70
     0
 10
0.0
 20
0.0
 11
1.0
 21
1.0
 12
387.1539238415291
 22
314.0498941607576
 13
0.0
 23
0.0
 14
0.5
 24
0.5
 15
0.5
 25
0.5
 16
0.0
 26
0.0
 36
1.0
 17
0.0
 27
0.0
 37
0.0
 40
39.88866989923081
 41
1.598484848484848
 42
50.0
 43
0.0
 44
0.0
 50
0.0
 51
0.0
 71
     0
 72
  1000
 73
     1
 74
     3
 75
     0
 76
     0
 77
     0
 78
     0
281
     0
 65
     1
110
0.0
120
0.0
130
0.0
111
1.0
121
0.0
131
0.0
112
0.0
122
1.0
132
0.0
 79
     0
146
0.0
  0
ENDTAB
  0
TABLE
  2
LTYPE
  5
5
330
0
100
AcDbSymbolTable
 70
     4
  0
LTYPE
  5
14
330
5
100
AcDbSymbolTableRecord
100
AcDbLinetypeTableRecord
  2
ByBlock
 70
     0
  3

 72
    65
 73
     0
 40
0.0
  0
LTYPE
  5
15
330
5
100
AcDbSymbolTableRecord
100
AcDbLinetypeTableRecord
  2
ByLayer
 70
     0
  3

 72
    65
 73
     0
 40
0.0
  0
LTYPE
  5
16
330
5
100
AcDbSymbolTableRecord
100
AcDbLinetypeTableRecord
  2
Continuous
 70
     0
  3
Solid line
 72
    65
 73
     0
 40
0.0
  0
LTYPE
  5
B00
330
5
100
AcDbSymbolTableRecord
100
AcDbLinetypeTableRecord
  2
CENTER
 70
     0
  3
Center ____ _ ____ _ ____ _ ____ _ ____ _ ____
 72
    65
 73
     4
 40
2.0
 49
1.25
 74
     0
 49
-0.25
 74
     0
 49
0.25
 74
     0
 49
-0.25
 74
     0
  0
LTYPE
  5
B01
330
5
100
AcDbSymbolTableRecord
100
AcDbLinetypeTableRecord
  2
HIDDEN
 70
     0
  3
Hidden __ __ __ __ __ __ __ __ __ __ __ __ __ __
 72
    65
 73
     2
 40
0.375
 49
0.25
 74
     0
 49
-0.125
 74
     0
  0
LTYPE
  5
B02
330
5
100
AcDbSymbolTableRecord
100
AcDbLinetypeTableRecord
  2
PHANTOM
 70
     0
  3
Phantom ______  __  __  ______  __  __  ______
 72
    65
 73
     6
 40
2.5
 49
1.25
 74
     0
 49
-0.25
 74
     0
 49
0.25
 74
     0
 49
-0.25
 74
     0
 49
0.25
 74
     0
 49
-0.25
 74
     0
  0
ENDTAB
  0
TABLE
  2
LAYER
  5
2
102
{ACAD_XDICTIONARY
360
3AF
102
}
330
0
100
AcDbSymbolTable
 70
     9
  0
LAYER
  5
10
330
2
100
AcDbSymbolTableRecord
100
AcDbLayerTableRecord
  2
0
 70
     0
 62
     7
  6
Continuous
370
    -3
390
F
  0
LAYER
  5
19F
330
2
100
AcDbSymbolTableRecord
100
AcDbLayerTableRecord
  2
Defpoints
 70
     0
 62
     7
  6
Continuous
290
     0
370
    -3
390
F
  0
LAYER
  5
4C2
330
2
100
AcDbSymbolTableRecord
100
AcDbLayerTableRecord
  2
Layer_0
 70
     0
 62
     7
  6
Continuous
370
    -3
390
F
  0
LAYER
  5
AF7
330
2
100
AcDbSymbolTableRecord
100
AcDbLayerTableRecord
  2
OutlineB
 70
     0
 62
     7
  6
Continuous
370
    25
390
F
1001
AcAecLayerStandard
1000

1000

  0
LAYER
  5
AF9
330
2
100
AcDbSymbolTableRecord
100
AcDbLayerTableRecord
  2
OutlineN
 70
     0
 62
     7
  6
Continuous
370
    15
390
F
1001
AcAecLayerStandard
1000

1000

  0
LAYER
  5
AFA
330
2
100
AcDbSymbolTableRecord
100
AcDbLayerTableRecord
  2
Center
 70
     0
 62
     1
  6
CENTER
370
    15
390
F
1001
AcAecLayerStandard
1000

1000

  0
LAYER
  5
AFB
330
2
100
AcDbSymbolTableRecord
100
AcDbLayerTableRecord
  2
Hidden
 70
     0
 62
     8
  6
HIDDEN
370
    15
390
F
1001
AcAecLayerStandard
1000

1000

  0
LAYER
  5
AFC
330
2
100
AcDbSymbolTableRecord
100
AcDbLayerTableRecord
  2
Dimension
 70
     0
 62
     5
  6
Continuous
370
    15
390
F
1001
AcAecLayerStandard
1000

1000

  0
LAYER
  5
AFD
330
2
100
AcDbSymbolTableRecord
100
AcDbLayerTableRecord
  2
Phantom
 70
     0
 62
    30
  6
PHANTOM
370
    15
390
F
1001
AcAecLayerStandard
1000

1000

  0
ENDTAB
  0
TABLE
  2
STYLE
  5
3
330
0
100
AcDbSymbolTable
 70
     4
  0
STYLE
  5
11
330
3
100
AcDbSymbolTableRecord
100
AcDbTextStyleTableRecord
  2
Standard
 70
     0
 40
0.0
 41
1.0
 50
0.0
 71
     0
 42
0.2
  3
txt.shx
  4
extfont2.shx
  0
STYLE
  5
AFF
330
3
100
AcDbSymbolTableRecord
100
AcDbTextStyleTableRecord
  2

 70
     1
 40
0.0
 41
1.0
 50
0.0
 71
     0
 42
0.2
  3
ltypeshp.shx
  4

  0
STYLE
  5
B07
330
3
100
AcDbSymbolTableRecord
100
AcDbTextStyleTableRecord
  2
FontStyle1
 70
     0
 40
0.0
 41
1.0
 50
0.0
 71
     0
 42
0.2
  3
simplex.shx
  4
bigfont.shx
  0
ENDTAB
  0
TABLE
  2
VIEW
  5
6
330
0
100
AcDbSymbolTable
 70
     0
  0
ENDTAB
  0
TABLE
  2
UCS
  5
7
330
0
100
AcDbSymbolTable
 70
     0
  0
ENDTAB
  0
TABLE
  2
APPID
  5
9
330
0
100
AcDbSymbolTable
 70
     9
  0
APPID
  5
12
330
9
100
AcDbSymbolTableRecord
100
AcDbRegAppTableRecord
  2
ACAD
 70
     0
  0
APPID
  5
D1
330
9
100
AcDbSymbolTableRecord
100
AcDbRegAppTableRecord
  2
ACAD_EXEMPT_FROM_CAD_STANDARDS
 70
     0
  0
APPID
  5
3A9
330
9
100
AcDbSymbolTableRecord
100
AcDbRegAppTableRecord
  2
ACAD_PSEXT
 70
     0
  0
APPID
  5
AF8
330
9
100
AcDbSymbolTableRecord
100
AcDbRegAppTableRecord
  2
AcAecLayerStandard
 70
     0
  0
APPID
  5
E68
330
9
100
AcDbSymbolTableRecord
100
AcDbRegAppTableRecord
  2
ACAUTHENVIRON
 70
     0
  0
APPID
  5
E84
330
9
100
AcDbSymbolTableRecord
100
AcDbRegAppTableRecord
  2
AcDbDynamicBlockTrueName
 70
     0
  0
APPID
  5
E85
330
9
100
AcDbSymbolTableRecord
100
AcDbRegAppTableRecord
  2
AcDbDynamicBlockGUID
 70
     0
  0
APPID
  5
E87
330
9
100
AcDbSymbolTableRecord
100
AcDbRegAppTableRecord
  2
AcDbBlockRepETag
 70
     0
  0
APPID
  5
10BF
330
9
100
AcDbSymbolTableRecord
100
AcDbRegAppTableRecord
  2
AcDbBlockRepBTag
 70
     0
  0
ENDTAB
  0
TABLE
  2
DIMSTYLE
  5
A
330
0
100
AcDbSymbolTable
 70
     4
100
AcDbDimStyleTable
 71
     3
340
B0A
340
4C3
340
27
  0
DIMSTYLE
105
27
330
A
100
AcDbSymbolTableRecord
100
AcDbDimStyleTableRecord
  2
Standard
 70
     0
 41
2.0
 42
1.0
 44
1.5
140
3.0
141
1.5
147
1.0
340
11
341
2E0
342
2E0
  0
DIMSTYLE
105
4C3
330
A
100
AcDbSymbolTableRecord
100
AcDbDimStyleTableRecord
  2
ISO-25
 70
     0
 41
2.5
 42
0.625
 43
3.75
 44
1.25
 73
     0
 74
     0
 77
     1
 78
     8
140
2.5
141
2.5
143
0.03937007874016
147
0.625
171
     3
172
     1
271
     2
272
     2
274
     3
278
    44
283
     0
284
     8
340
11
  0
DIMSTYLE
105
B0A
102
{ACAD_REACTORS
330
13BB
330
144F
330
1467
330
1776
330
1BCA
102
}
330
A
100
AcDbSymbolTableRecord
100
AcDbDimStyleTableRecord
  2
DimStyle1
 70
     0
 41
0.8
 42
0.5
 43
7.0
 44
0.5
 73
     0
 74
     0
 77
     1
 78
     9
 79
     2
140
1.0
141
0.3
143
0.03937007874016
147
0.5
171
     3
172
     1
179
     2
271
     2
272
     2
274
     3
283
     0
284
     8
340
B07
341
2E0
342
2E0
  0
ENDTAB
  0
TABLE
  2
BLOCK_RECORD
  5
1
330
0
100
AcDbSymbolTable
 70
    16
  0
BLOCK_RECORD
  5
1F
102
{ACAD_XDICTIONARY
360
CB
102
}
330
1
100
AcDbSymbolTableRecord
100
AcDbBlockTableRecord
  2
*Model_Space
340
22
  0
BLOCK_RECORD
  5
58
102
{ACAD_XDICTIONARY
360
130F
102
}
330
1
100
AcDbSymbolTableRecord
100
AcDbBlockTableRecord
  2
*Paper_Space
340
59
  0
BLOCK_RECORD
  5
2E0
330
1
100
AcDbSymbolTableRecord
100
AcDbBlockTableRecord
  2
_Open30
340
0
102
{BLKREFS
331
1449
331
144A
331
1701
331
1702
331
1A6F
331
1A70
331
1BBB
331
1BBC
331
1BF7
331
1BF8
331
1CBC
331
1CBD
331
1CCE
331
1CCF
331
1CD7
331
1CD8
102
}
  0
BLOCK_RECORD
  5
8AB
102
{ACAD_XDICTIONARY
360
1F66
102
}
330
1
100
AcDbSymbolTableRecord
100
AcDbBlockTableRecord
  2
A4横（ねじ）
340
0
310
2800000020000000200000000100080000000000000400000000000000000000000000000000000000000000000080000080000000808000800000008000800080800000C0C0C000C0DCC000F0CAA6000020400000206000002080000020A0000020C0000020E00000400000004020000040400000406000004080000040A0
310
000040C0000040E00000600000006020000060400000606000006080000060A0000060C0000060E00000800000008020000080400000806000008080000080A0000080C0000080E00000A0000000A0200000A0400000A0600000A0800000A0A00000A0C00000A0E00000C0000000C0200000C0400000C0600000C0800000C0
310
A00000C0C00000C0E00000E0000000E0200000E0400000E0600000E0800000E0A00000E0C00000E0E00040000000400020004000400040006000400080004000A0004000C0004000E00040200000402020004020400040206000402080004020A0004020C0004020E000404000004040200040404000404060004040800040
310
40A0004040C0004040E00040600000406020004060400040606000406080004060A0004060C0004060E00040800000408020004080400040806000408080004080A0004080C0004080E00040A0000040A0200040A0400040A0600040A0800040A0A00040A0C00040A0E00040C0000040C0200040C0400040C0600040C08000
310
40C0A00040C0C00040C0E00040E0000040E0200040E0400040E0600040E0800040E0A00040E0C00040E0E00080000000800020008000400080006000800080008000A0008000C0008000E00080200000802020008020400080206000802080008020A0008020C0008020E00080400000804020008040400080406000804080
310
008040A0008040C0008040E00080600000806020008060400080606000806080008060A0008060C0008060E00080800000808020008080400080806000808080008080A0008080C0008080E00080A0000080A0200080A0400080A0600080A0800080A0A00080A0C00080A0E00080C0000080C0200080C0400080C0600080C0
310
800080C0A00080C0C00080C0E00080E0000080E0200080E0400080E0600080E0800080E0A00080E0C00080E0E000C0000000C0002000C0004000C0006000C0008000C000A000C000C000C000E000C0200000C0202000C0204000C0206000C0208000C020A000C020C000C020E000C0400000C0402000C0404000C0406000C0
310
408000C040A000C040C000C040E000C0600000C0602000C0604000C0606000C0608000C060A000C060C000C060E000C0800000C0802000C0804000C0806000C0808000C080A000C080C000C080E000C0A00000C0A02000C0A04000C0A06000C0A08000C0A0A000C0A0C000C0A0E000C0C00000C0C02000C0C04000C0C06000
310
C0C08000C0C0A000F0FBFF00A4A0A000808080000000FF0000FF000000FFFF00FF000000FF00FF00FFFF0000FFFFFF00FFFFFFFFFFFFFFFFFFFFFFFFFFFFFFFFFFFFFFFFFFFFFFFFFFFFFFFFFFFFFFFFFFFFFFFFFFFFFFFFFFFFFFFFFFFFFFFFFFFFFFFFFFFFFFFFFFFFFFFFFFFFFFFFFFFFFFFFFFFFFFFFFFFFFFFFFFFFFF
310
FFFFFFFFFFFFFFFFFFFFFFFFFFFFFFFFFFFFFFFFFFFFFFFFFFFFFFFFFFFFFFFFFFFFFFFFFFFFFFFFFFFFFFFFFFFFFFFFFFFFFFFFFFFFFFFFFFFFFFFFFFFFFFFFFFFFFFFFFFFFFFFFFFFFFFFFFFFFFFFFFFFFFFFFFFFFFFFFFFFFFFFFFFFFFFFFFFFFFFFFFFFFFFFFFFFFFFFFFFFFFFFFFFFF000000FFFFFF00FFFFFF00FFFF
310
FF00FFFFFFFF00FFFFFF00FFFFFF000000FFFF00FF0000000000000000000000000000000000000000000000000000FF00FFFFFFFF00FFFFFFFFFFFFFFFFFFFFFFFFFFFFFF00000000000000000000FFFFFFFFFFFF00FFFFFFFFFFFFFFFFFFFFFFFFFFFFFF00000000000000000000FFFFFFFFFFFF00FFFFFFFFFFFFFFFFFF
310
FFFFFFFFFFFF00000000000000000000FFFFFFFFFF0000FFFFFFFFFFFFFFFFFFFFFFFFFFFFFFFFFFFFFFFFFFFFFFFF0000FFFFFFFFFF00FFFFFFFFFFFFFFFFFFFFFFFFFFFFFFFFFFFFFFFFFFFFFFFF00FFFFFFFFFFFF00FFFFFFFFFFFFFFFFFFFFFFFFFFFFFFFFFFFFFFFFFFFFFFFF00FFFFFFFFFFFF00FFFFFFFFFFFFFFFF
310
FFFFFFFFFFFFFFFFFFFFFFFFFFFFFFFF00FFFFFFFFFF0000FFFFFFFFFFFFFFFFFFFFFFFFFFFFFFFFFFFFFFFFFFFFFFFF0000FFFFFFFFFF00FFFFFFFFFFFFFFFFFFFFFFFFFFFFFFFFFFFFFFFFFFFFFFFF00FFFFFFFFFFFF00FFFFFFFFFFFFFFFFFFFFFFFFFFFFFFFFFFFFFFFFFFFFFFFF00FFFFFFFFFFFF00FFFFFFFFFFFFFF
310
FFFFFFFFFFFFFFFFFFFFFFFFFFFFFFFFFF00FFFFFFFFFFFF00FFFFFFFFFFFFFFFFFFFFFFFFFFFFFFFFFFFFFFFFFFFFFFFF00FFFFFFFFFF0000FFFFFFFFFFFFFFFFFFFFFFFFFFFFFFFFFFFFFFFFFFFFFFFF0000FFFFFFFFFF00FFFFFFFFFFFFFFFFFFFFFFFFFFFFFFFFFFFFFFFFFFFFFFFF00FFFFFFFFFFFF00FFFFFFFFFFFF
310
FFFFFFFFFFFFFFFFFFFFFFFFFFFFFFFFFFFF00FFFFFFFFFFFF00FFFFFFFFFFFFFFFFFFFFFFFFFFFFFFFFFFFFFFFFFFFFFFFF00FFFFFFFF00FF0000000000000000000000000000000000000000000000000000FF00FFFF000000FFFFFF00FFFFFF00FFFFFF00FFFFFFFF00FFFFFF00FFFFFF000000FFFFFFFFFFFFFFFFFFFF
310
FFFFFFFFFFFFFFFFFFFFFFFFFFFFFFFFFFFFFFFFFFFFFFFFFFFFFFFFFFFFFFFFFFFFFFFFFFFFFFFFFFFFFFFFFFFFFFFFFFFFFFFFFFFFFFFFFFFFFFFFFFFFFFFFFFFFFFFFFFFFFFFFFFFFFFFFFFFFFFFFFFFFFFFFFFFFFFFFFFFFFFFFFFFFFFFFFFFFFFFFFFFFFFFFFFFFFFFFFFFFFFFFFFFFFFFFFFFFFFFFFFFFFFFFFFFFFF
310
FFFFFFFFFFFFFFFFFFFFFFFFFFFFFFFFFFFFFFFFFFFFFFFFFFFFFFFFFFFFFFFFFFFFFFFFFFFFFFFFFFFFFFFFFFFFFFFFFFFFFFFFFFFFFFFF
102
{BLKREFS
331
BDB
331
130D
102
}
1001
AcDbDynamicBlockGUID
1000
{97F2DED4-7BC3-4233-B4E6-8F6BF5CF75EA}
1001
AcDbBlockRepETag
1070
     1
1071
     1073
1001
ACAD
1000
DesignCenter Data
1002
{
1070
     1
1070
     4
1002
}
  0
BLOCK_RECORD
  5
B0B
330
1
100
AcDbSymbolTableRecord
100
AcDbBlockTableRecord
  2
_Closed
340
0
  0
BLOCK_RECORD
  5
BD8
330
1
100
AcDbSymbolTableRecord
100
AcDbBlockTableRecord
  2
A4横_kda1
340
0
310
2800000020000000200000000100080000000000000400000000000000000000000000000000000000000000000080000080000000808000800000008000800080800000C0C0C000C0DCC000F0CAA6000020400000206000002080000020A0000020C0000020E00000400000004020000040400000406000004080000040A0
310
000040C0000040E00000600000006020000060400000606000006080000060A0000060C0000060E00000800000008020000080400000806000008080000080A0000080C0000080E00000A0000000A0200000A0400000A0600000A0800000A0A00000A0C00000A0E00000C0000000C0200000C0400000C0600000C0800000C0
310
A00000C0C00000C0E00000E0000000E0200000E0400000E0600000E0800000E0A00000E0C00000E0E00040000000400020004000400040006000400080004000A0004000C0004000E00040200000402020004020400040206000402080004020A0004020C0004020E000404000004040200040404000404060004040800040
310
40A0004040C0004040E00040600000406020004060400040606000406080004060A0004060C0004060E00040800000408020004080400040806000408080004080A0004080C0004080E00040A0000040A0200040A0400040A0600040A0800040A0A00040A0C00040A0E00040C0000040C0200040C0400040C0600040C08000
310
40C0A00040C0C00040C0E00040E0000040E0200040E0400040E0600040E0800040E0A00040E0C00040E0E00080000000800020008000400080006000800080008000A0008000C0008000E00080200000802020008020400080206000802080008020A0008020C0008020E00080400000804020008040400080406000804080
310
008040A0008040C0008040E00080600000806020008060400080606000806080008060A0008060C0008060E00080800000808020008080400080806000808080008080A0008080C0008080E00080A0000080A0200080A0400080A0600080A0800080A0A00080A0C00080A0E00080C0000080C0200080C0400080C0600080C0
310
800080C0A00080C0C00080C0E00080E0000080E0200080E0400080E0600080E0800080E0A00080E0C00080E0E000C0000000C0002000C0004000C0006000C0008000C000A000C000C000C000E000C0200000C0202000C0204000C0206000C0208000C020A000C020C000C020E000C0400000C0402000C0404000C0406000C0
310
408000C040A000C040C000C040E000C0600000C0602000C0604000C0606000C0608000C060A000C060C000C060E000C0800000C0802000C0804000C0806000C0808000C080A000C080C000C080E000C0A00000C0A02000C0A04000C0A06000C0A08000C0A0A000C0A0C000C0A0E000C0C00000C0C02000C0C04000C0C06000
310
C0C08000C0C0A000F0FBFF00A4A0A000808080000000FF0000FF000000FFFF00FF000000FF00FF00FFFF0000FFFFFF00FFFFFFFFFFFFFFFFFFFFFFFFFFFFFFFFFFFFFFFFFFFFFFFFFFFFFFFFFFFFFFFFFFFFFFFFFFFFFFFFFFFFFFFFFFFFFFFFFFFFFFFFFFFFFFFFFFFFFFFFFFFFFFFFFFFFFFFFFFFFFFFFFFFFFFFFFFFFFF
310
FFFFFFFFFFFFFFFFFFFFFFFFFFFFFFFFFFFFFFFFFFFFFFFFFFFFFFFFFFFFFFFFFFFFFFFFFFFFFFFFFFFFFFFFFFFFFFFFFFFFFFFFFFFFFFFFFFFFFFFFFFFFFFFFFFFFFFFFFFFFFFFFFFFFFFFFFFFFFFFFFFFFFFFFFFFFFFFFFFFFFFFFFFFFFFFFFFFFFFFFFFFFFFFFFFFFFFFFFFFFFFFFFFFF000000FFFFFF00FFFFFF00FFFF
310
FF00FFFFFFFF00FFFFFF00FFFFFF000000FFFF00FF0000000000000000000000000000000000000000000000000000FF00FFFFFFFF00FFFFFFFFFFFFFFFFFFFFFFFFFFFFFF00000000000000000000FFFFFFFFFFFF00FFFFFFFFFFFFFFFFFFFFFFFFFFFFFF00000000000000000000FFFFFFFFFFFF00FFFFFFFFFFFFFFFFFF
310
FFFFFFFFFFFF00000000000000000000FFFFFFFFFF0000FFFFFFFFFFFFFFFFFFFFFFFFFFFFFFFFFFFFFFFFFFFFFFFF0000FFFFFFFFFF00FFFFFFFFFFFFFFFFFFFFFFFFFFFFFFFFFFFFFFFFFFFFFFFF00FFFFFFFFFFFF00FFFFFFFFFFFFFFFFFFFFFFFFFFFFFFFFFFFFFFFFFFFFFFFF00FFFFFFFFFFFF00FFFFFFFFFFFFFFFF
310
FFFFFFFFFFFFFFFFFFFFFFFFFFFFFFFF00FFFFFFFFFFFF00FFFFFFFFFFFFFFFFFFFFFFFFFFFFFFFFFFFFFFFFFFFFFFFF00FFFFFFFFFF0000FFFFFFFFFFFFFFFFFFFFFFFFFFFFFFFFFFFFFFFFFFFFFFFF0000FFFFFFFFFF00FFFFFFFFFFFFFFFFFFFFFFFFFFFFFFFFFFFFFFFFFFFFFFFF00FFFFFFFFFFFF00FFFFFFFFFFFFFF
310
FFFFFFFFFFFFFFFFFFFFFFFFFFFFFFFFFF00FFFFFFFFFFFF00FFFFFFFFFFFFFFFFFFFFFFFFFFFFFFFFFFFFFFFFFFFFFFFF00FFFFFFFFFF0000FFFFFFFFFFFFFFFFFFFFFFFFFFFFFFFFFFFFFFFFFFFFFFFF0000FFFFFFFFFF00FFFFFFFFFFFFFFFFFFFFFFFFFFFFFFFFFFFFFFFFFFFFFFFF00FFFFFFFFFFFF00FFFFFFFFFFFF
310
FFFFFFFFFFFFFFFFFFFFFFFFFFFFFFFFFFFF00FFFFFFFFFFFF00FFFFFFFFFFFFFFFFFFFFFFFFFFFFFFFFFFFFFFFFFFFFFFFF00FFFFFFFF00FF0000000000000000000000000000000000000000000000000000FF00FFFF000000FFFFFF00FFFFFF00FFFFFF00FFFFFFFF00FFFFFF00FFFFFF000000FFFFFFFFFFFFFFFFFFFF
310
FFFFFFFFFFFFFFFFFFFFFFFFFFFFFFFFFFFFFFFFFFFFFFFFFFFFFFFFFFFFFFFFFFFFFFFFFFFFFFFFFFFFFFFFFFFFFFFFFFFFFFFFFFFFFFFFFFFFFFFFFFFFFFFFFFFFFFFFFFFFFFFFFFFFFFFFFFFFFFFFFFFFFFFFFFFFFFFFFFFFFFFFFFFFFFFFFFFFFFFFFFFFFFFFFFFFFFFFFFFFFFFFFFFFFFFFFFFFFFFFFFFFFFFFFFFFFF
310
FFFFFFFFFFFFFFFFFFFFFFFFFFFFFFFFFFFFFFFFFFFFFFFFFFFFFFFFFFFFFFFFFFFFFFFFFFFFFFFFFFFFFFFFFFFFFFFFFFFFFFFFFFFFFFFF
1001
ACAD
1000
DesignCenter Data
1002
{
1070
     1
1070
     4
1002
}
  0
BLOCK_RECORD
  5
13BC
330
1
100
AcDbSymbolTableRecord
100
AcDbBlockTableRecord
  2
*D4
340
0
  0
BLOCK_RECORD
  5
1426
330
1
100
AcDbSymbolTableRecord
100
AcDbBlockTableRecord
  2
*D5
340
0
  0
BLOCK_RECORD
  5
1450
330
1
100
AcDbSymbolTableRecord
100
AcDbBlockTableRecord
  2
*D6
340
0
  0
BLOCK_RECORD
  5
1468
330
1
100
AcDbSymbolTableRecord
100
AcDbBlockTableRecord
  2
*D7
340
0
  0
BLOCK_RECORD
  5
1480
330
1
100
AcDbSymbolTableRecord
100
AcDbBlockTableRecord
  2
*D8
340
0
  0
BLOCK_RECORD
  5
16EF
330
1
100
AcDbSymbolTableRecord
100
AcDbBlockTableRecord
  2
*D9
340
0
  0
BLOCK_RECORD
  5
19CA
330
1
100
AcDbSymbolTableRecord
100
AcDbBlockTableRecord
  2
*D10
340
0
  0
BLOCK_RECORD
  5
1BCB
330
1
100
AcDbSymbolTableRecord
100
AcDbBlockTableRecord
  2
*D11
340
0
  0
ENDTAB
  0
ENDSEC
  0
SECTION
  2
BLOCKS
  0
BLOCK
  5
20
330
1F
100
AcDbEntity
  8
0
100
AcDbBlockBegin
  2
*Model_Space
 70
     0
 10
0.0
 20
0.0
 30
0.0
  3
*Model_Space
  1

  0
ENDBLK
  5
21
330
1F
100
AcDbEntity
  8
0
100
AcDbBlockEnd
  0
BLOCK
  5
5A
330
58
100
AcDbEntity
 67
     1
  8
0
100
AcDbBlockBegin
  2
*Paper_Space
 70
     0
 10
0.0
 20
0.0
 30
0.0
  3
*Paper_Space
  1

  0
ENDBLK
  5
5B
330
58
100
AcDbEntity
 67
     1
  8
0
100
AcDbBlockEnd
  0
BLOCK
  5
2E4
330
2E0
100
AcDbEntity
  8
0
100
AcDbBlockBegin
  2
_Open30
 70
     0
 10
0.0
 20
0.0
 30
0.0
  3
_Open30
  1

  0
LINE
  5
2E1
330
2E0
100
AcDbEntity
  8
0
  6
ByBlock
 62
     0
370
    -2
100
AcDbLine
 10
-1.0
 20
0.26794919
 30
0.0
 11
0.0
 21
0.0
 31
0.0
  0
LINE
  5
2E2
330
2E0
100
AcDbEntity
  8
0
  6
ByBlock
 62
     0
370
    -2
100
AcDbLine
 10
0.0
 20
0.0
 30
0.0
 11
-1.0
 21
-0.26794919
 31
0.0
  0
LINE
  5
2E3
330
2E0
100
AcDbEntity
  8
0
  6
ByBlock
 62
     0
370
    -2
100
AcDbLine
 10
0.0
 20
0.0
 30
0.0
 11
-1.0
 21
0.0
 31
0.0
  0
ENDBLK
  5
2E5
330
2E0
100
AcDbEntity
  8
0
100
AcDbBlockEnd
  0
BLOCK
  5
8AC
330
8AB
100
AcDbEntity
  8
0
100
AcDbBlockBegin
  2
A4横（ねじ）
 70
     0
 10
0.0
 20
0.0
 30
0.0
  3
A4横（ねじ）
  1

  0
LINE
  5
1D35
330
8AB
100
AcDbEntity
  8
0
100
AcDbLine
 10
15.0
 20
15.0
 30
0.0
 11
15.00000000000001
 21
195.0
 31
0.0
1001
AcDbBlockRepETag
1070
     1
1071
        0
1005
1D35
  0
LINE
  5
1D36
330
8AB
100
AcDbEntity
  8
0
100
AcDbLine
 10
0.0000000000000001
 20
0.0000000000000018
 30
0.0
 11
0.0000000000000008
 21
15.0
 31
0.0
1001
AcDbBlockRepETag
1070
     1
1071
        1
1005
1D36
  0
LINE
  5
1D37
330
8AB
100
AcDbEntity
  8
0
100
AcDbLine
 10
0.0000000000000091
 20
195.0
 30
0.0
 11
0.0000000000000098
 21
210.0
 31
0.0
1001
AcDbBlockRepETag
1070
     1
1071
        2
1005
1D37
  0
LINE
  5
1D38
330
8AB
100
AcDbEntity
  8
0
100
AcDbLine
 10
15.00000000000001
 20
195.0
 30
0.0
 11
282.0
 21
195.0
 31
0.0
1001
AcDbBlockRepETag
1070
     1
1071
        3
1005
1D38
  0
LINE
  5
1D39
330
8AB
100
AcDbEntity
  8
0
100
AcDbLine
 10
0.0000000000000098
 20
210.0
 30
0.0
 11
15.00000000000001
 21
210.0
 31
0.0
1001
AcDbBlockRepETag
1070
     1
1071
        4
1005
1D39
  0
LINE
  5
1D3A
330
8AB
100
AcDbEntity
  8
0
100
AcDbLine
 10
282.0
 20
210.0
 30
0.0
 11
297.0
 21
210.0
 31
0.0
1001
AcDbBlockRepETag
1070
     1
1071
        5
1005
1D3A
  0
LINE
  5
1D3B
330
8AB
100
AcDbEntity
  8
0
100
AcDbLine
 10
282.0
 20
195.0
 30
0.0
 11
281.9999999999999
 21
15.0
 31
0.0
1001
AcDbBlockRepETag
1070
     1
1071
        6
1005
1D3B
  0
LINE
  5
1D3C
330
8AB
100
AcDbEntity
  8
0
100
AcDbLine
 10
297.0
 20
210.0
 30
0.0
 11
297.0
 21
195.0
 31
0.0
1001
AcDbBlockRepETag
1070
     1
1071
        7
1005
1D3C
  0
LINE
  5
1D3D
330
8AB
100
AcDbEntity
  8
0
100
AcDbLine
 10
296.9999999999999
 20
15.0
 30
0.0
 11
296.9999999999999
 21
0.0
 31
0.0
1001
AcDbBlockRepETag
1070
     1
1071
        8
1005
1D3D
  0
LINE
  5
1D3E
330
8AB
100
AcDbEntity
  8
0
100
AcDbLine
 10
281.9999999999999
 20
15.0
 30
0.0
 11
15.0
 21
15.0
 31
0.0
1001
AcDbBlockRepETag
1070
     1
1071
        9
1005
1D3E
  0
LINE
  5
1D3F
330
8AB
100
AcDbEntity
  8
0
100
AcDbLine
 10
296.9999999999999
 20
0.0
 30
0.0
 11
281.9999999999999
 21
0.0000000000000001
 31
0.0
1001
AcDbBlockRepETag
1070
     1
1071
       10
1005
1D3F
  0
LINE
  5
1D40
330
8AB
100
AcDbEntity
  8
0
100
AcDbLine
 10
15.0
 20
0.0000000000000017
 30
0.0
 11
0.0
 21
0.0000000000000018
 31
0.0
1001
AcDbBlockRepETag
1070
     1
1071
       11
1005
1D40
  0
LINE
  5
1D4A
330
8AB
100
AcDbEntity
  8
0
100
AcDbLine
 10
148.4999999999999
 20
15.0
 30
0.0
 11
148.4999999999999
 21
10.0
 31
0.0
1001
AcDbBlockRepETag
1070
     1
1071
       21
1005
1D4A
  0
LINE
  5
1D4B
330
8AB
100
AcDbEntity
  8
0
100
AcDbLine
 10
192.9999999999999
 20
15.0
 30
0.0
 11
192.9999999999999
 21
10.0
 31
0.0
1001
AcDbBlockRepETag
1070
     1
1071
       22
1005
1D4B
  0
LINE
  5
1D4C
330
8AB
100
AcDbEntity
  8
0
100
AcDbLine
 10
237.5
 20
15.0
 30
0.0
 11
237.5
 21
10.0
 31
0.0
1001
AcDbBlockRepETag
1070
     1
1071
       23
1005
1D4C
  0
LINE
  5
1D4D
330
8AB
100
AcDbEntity
  8
0
100
AcDbLine
 10
104.0
 20
15.0
 30
0.0
 11
104.0
 21
10.0
 31
0.0
1001
AcDbBlockRepETag
1070
     1
1071
       24
1005
1D4D
  0
LINE
  5
1D4E
330
8AB
100
AcDbEntity
  8
0
100
AcDbLine
 10
59.49999999999997
 20
15.0
 30
0.0
 11
59.49999999999997
 21
10.0
 31
0.0
1001
AcDbBlockRepETag
1070
     1
1071
       25
1005
1D4E
  0
LINE
  5
1D4F
330
8AB
100
AcDbEntity
  8
0
100
AcDbLine
 10
15.0
 20
105.0
 30
0.0
 11
10.0
 21
105.0
 31
0.0
1001
AcDbBlockRepETag
1070
     1
1071
       26
1005
1D4F
  0
LINE
  5
1D50
330
8AB
100
AcDbEntity
  8
0
100
AcDbLine
 10
15.0
 20
150.0
 30
0.0
 11
10.0
 21
150.0
 31
0.0
1001
AcDbBlockRepETag
1070
     1
1071
       27
1005
1D50
  0
LINE
  5
1D51
330
8AB
100
AcDbEntity
  8
0
100
AcDbLine
 10
15.0
 20
60.0
 30
0.0
 11
10.0
 21
60.0
 31
0.0
1001
AcDbBlockRepETag
1070
     1
1071
       28
1005
1D51
  0
LINE
  5
1D52
330
8AB
100
AcDbEntity
  8
0
100
AcDbLine
 10
148.4999999999999
 20
195.0
 30
0.0
 11
148.4999999999999
 21
200.0
 31
0.0
1001
AcDbBlockRepETag
1070
     1
1071
       29
1005
1D52
  0
LINE
  5
1D53
330
8AB
100
AcDbEntity
  8
0
100
AcDbLine
 10
192.9999999999999
 20
195.0
 30
0.0
 11
192.9999999999999
 21
200.0
 31
0.0
1001
AcDbBlockRepETag
1070
     1
1071
       30
1005
1D53
  0
LINE
  5
1D54
330
8AB
100
AcDbEntity
  8
0
100
AcDbLine
 10
237.5
 20
195.0
 30
0.0
 11
237.5
 21
200.0
 31
0.0
1001
AcDbBlockRepETag
1070
     1
1071
       31
1005
1D54
  0
LINE
  5
1D55
330
8AB
100
AcDbEntity
  8
0
100
AcDbLine
 10
104.0
 20
195.0
 30
0.0
 11
104.0
 21
200.0
 31
0.0
1001
AcDbBlockRepETag
1070
     1
1071
       32
1005
1D55
  0
LINE
  5
1D56
330
8AB
100
AcDbEntity
  8
0
100
AcDbLine
 10
59.49999999999997
 20
195.0
 30
0.0
 11
59.49999999999997
 21
200.0
 31
0.0
1001
AcDbBlockRepETag
1070
     1
1071
       33
1005
1D56
  0
LINE
  5
1D57
330
8AB
100
AcDbEntity
  8
0
100
AcDbLine
 10
281.9999999999999
 20
105.0
 30
0.0
 11
287.0
 21
105.0
 31
0.0
1001
AcDbBlockRepETag
1070
     1
1071
       34
1005
1D57
  0
LINE
  5
1D58
330
8AB
100
AcDbEntity
  8
0
100
AcDbLine
 10
281.9999999999999
 20
150.0
 30
0.0
 11
287.0
 21
150.0
 31
0.0
1001
AcDbBlockRepETag
1070
     1
1071
       35
1005
1D58
  0
LINE
  5
1D59
330
8AB
100
AcDbEntity
  8
0
100
AcDbLine
 10
281.9999999999999
 20
60.0
 30
0.0
 11
287.0
 21
60.0
 31
0.0
1001
AcDbBlockRepETag
1070
     1
1071
       36
1005
1D59
  0
MTEXT
  5
1D5A
330
8AB
100
AcDbEntity
  8
0
100
AcDbMText
 10
37.25
 20
197.5
 30
0.0
 40
1.6
 41
44.49999999999996
 71
     5
 72
     5
  1
{\Ftxt|c128;1}
 73
     1
 44
1.0
1001
AcDbBlockRepETag
1070
     1
1071
       37
1005
1D5A
1001
ACAD
1000
MTEXTBEGIN
1070
    73
1070
     1
1070
    44
1040
1.0
1070
    74
1070
     0
1000
MTEXTEND
1000
ACAD_MTEXT_DEFINED_HEIGHT_BEGIN
1070
    46
1040
5.0
1000
ACAD_MTEXT_DEFINED_HEIGHT_END
  0
MTEXT
  5
1D5B
330
8AB
100
AcDbEntity
  8
0
100
AcDbMText
 10
81.74999999999995
 20
197.5
 30
0.0
 40
1.6
 41
44.49999999999996
 71
     5
 72
     5
  1
{\Ftxt|c128;2}
 73
     1
 44
1.0
1001
AcDbBlockRepETag
1070
     1
1071
       38
1005
1D5B
1001
ACAD
1000
MTEXTBEGIN
1070
    73
1070
     1
1070
    44
1040
1.0
1070
    74
1070
     0
1000
MTEXTEND
1000
ACAD_MTEXT_DEFINED_HEIGHT_BEGIN
1070
    46
1040
5.0
1000
ACAD_MTEXT_DEFINED_HEIGHT_END
  0
MTEXT
  5
1D5C
330
8AB
100
AcDbEntity
  8
0
100
AcDbMText
 10
126.2499999999999
 20
197.5
 30
0.0
 40
1.6
 41
44.49999999999996
 71
     5
 72
     5
  1
{\Ftxt|c128;3}
 73
     1
 44
1.0
1001
AcDbBlockRepETag
1070
     1
1071
       39
1005
1D5C
1001
ACAD
1000
MTEXTBEGIN
1070
    73
1070
     1
1070
    44
1040
1.0
1070
    74
1070
     0
1000
MTEXTEND
1000
ACAD_MTEXT_DEFINED_HEIGHT_BEGIN
1070
    46
1040
5.0
1000
ACAD_MTEXT_DEFINED_HEIGHT_END
  0
MTEXT
  5
1D5D
330
8AB
100
AcDbEntity
  8
0
100
AcDbMText
 10
170.7499999999999
 20
197.5
 30
0.0
 40
1.6
 41
44.49999999999996
 71
     5
 72
     5
  1
{\Ftxt|c128;4}
 73
     1
 44
1.0
1001
AcDbBlockRepETag
1070
     1
1071
       40
1005
1D5D
1001
ACAD
1000
MTEXTBEGIN
1070
    73
1070
     1
1070
    44
1040
1.0
1070
    74
1070
     0
1000
MTEXTEND
1000
ACAD_MTEXT_DEFINED_HEIGHT_BEGIN
1070
    46
1040
5.0
1000
ACAD_MTEXT_DEFINED_HEIGHT_END
  0
MTEXT
  5
1D5E
330
8AB
100
AcDbEntity
  8
0
100
AcDbMText
 10
215.2499999999999
 20
197.5
 30
0.0
 40
1.6
 41
44.49999999999996
 71
     5
 72
     5
  1
{\Ftxt|c128;5}
 73
     1
 44
1.0
1001
AcDbBlockRepETag
1070
     1
1071
       41
1005
1D5E
1001
ACAD
1000
MTEXTBEGIN
1070
    73
1070
     1
1070
    44
1040
1.0
1070
    74
1070
     0
1000
MTEXTEND
1000
ACAD_MTEXT_DEFINED_HEIGHT_BEGIN
1070
    46
1040
5.0
1000
ACAD_MTEXT_DEFINED_HEIGHT_END
  0
MTEXT
  5
1D5F
330
8AB
100
AcDbEntity
  8
0
100
AcDbMText
 10
259.75
 20
197.5
 30
0.0
 40
1.6
 41
44.49999999999996
 71
     5
 72
     5
  1
{\Ftxt|c128;6}
 73
     1
 44
1.0
1001
AcDbBlockRepETag
1070
     1
1071
       42
1005
1D5F
1001
ACAD
1000
MTEXTBEGIN
1070
    73
1070
     1
1070
    44
1040
1.0
1070
    74
1070
     0
1000
MTEXTEND
1000
ACAD_MTEXT_DEFINED_HEIGHT_BEGIN
1070
    46
1040
5.0
1000
ACAD_MTEXT_DEFINED_HEIGHT_END
  0
MTEXT
  5
1D60
330
8AB
100
AcDbEntity
  8
0
100
AcDbMText
 10
37.25
 20
12.5
 30
0.0
 40
1.6
 41
44.49999999999996
 71
     5
 72
     5
  1
{\Ftxt|c128;1}
 73
     1
 44
1.0
1001
AcDbBlockRepETag
1070
     1
1071
       43
1005
1D60
1001
ACAD
1000
MTEXTBEGIN
1070
    73
1070
     1
1070
    44
1040
1.0
1070
    74
1070
     0
1000
MTEXTEND
1000
ACAD_MTEXT_DEFINED_HEIGHT_BEGIN
1070
    46
1040
5.0
1000
ACAD_MTEXT_DEFINED_HEIGHT_END
  0
MTEXT
  5
1D61
330
8AB
100
AcDbEntity
  8
0
100
AcDbMText
 10
81.74999999999995
 20
12.5
 30
0.0
 40
1.6
 41
44.49999999999996
 71
     5
 72
     5
  1
{\Ftxt|c128;2}
 73
     1
 44
1.0
1001
AcDbBlockRepETag
1070
     1
1071
       44
1005
1D61
1001
ACAD
1000
MTEXTBEGIN
1070
    73
1070
     1
1070
    44
1040
1.0
1070
    74
1070
     0
1000
MTEXTEND
1000
ACAD_MTEXT_DEFINED_HEIGHT_BEGIN
1070
    46
1040
5.0
1000
ACAD_MTEXT_DEFINED_HEIGHT_END
  0
MTEXT
  5
1D62
330
8AB
100
AcDbEntity
  8
0
100
AcDbMText
 10
126.2499999999999
 20
12.5
 30
0.0
 40
1.6
 41
44.49999999999996
 71
     5
 72
     5
  1
{\Ftxt|c128;3}
 73
     1
 44
1.0
1001
AcDbBlockRepETag
1070
     1
1071
       45
1005
1D62
1001
ACAD
1000
MTEXTBEGIN
1070
    73
1070
     1
1070
    44
1040
1.0
1070
    74
1070
     0
1000
MTEXTEND
1000
ACAD_MTEXT_DEFINED_HEIGHT_BEGIN
1070
    46
1040
5.0
1000
ACAD_MTEXT_DEFINED_HEIGHT_END
  0
MTEXT
  5
1D63
330
8AB
100
AcDbEntity
  8
0
100
AcDbMText
 10
170.7499999999999
 20
12.5
 30
0.0
 40
1.6
 41
44.49999999999996
 71
     5
 72
     5
  1
{\Ftxt|c128;4}
 73
     1
 44
1.0
1001
AcDbBlockRepETag
1070
     1
1071
       46
1005
1D63
1001
ACAD
1000
MTEXTBEGIN
1070
    73
1070
     1
1070
    44
1040
1.0
1070
    74
1070
     0
1000
MTEXTEND
1000
ACAD_MTEXT_DEFINED_HEIGHT_BEGIN
1070
    46
1040
5.0
1000
ACAD_MTEXT_DEFINED_HEIGHT_END
  0
MTEXT
  5
1D64
330
8AB
100
AcDbEntity
  8
0
100
AcDbMText
 10
215.2499999999999
 20
12.5
 30
0.0
 40
1.6
 41
44.49999999999996
 71
     5
 72
     5
  1
{\Ftxt|c128;5}
 73
     1
 44
1.0
1001
AcDbBlockRepETag
1070
     1
1071
       47
1005
1D64
1001
ACAD
1000
MTEXTBEGIN
1070
    73
1070
     1
1070
    44
1040
1.0
1070
    74
1070
     0
1000
MTEXTEND
1000
ACAD_MTEXT_DEFINED_HEIGHT_BEGIN
1070
    46
1040
5.0
1000
ACAD_MTEXT_DEFINED_HEIGHT_END
  0
MTEXT
  5
1D65
330
8AB
100
AcDbEntity
  8
0
100
AcDbMText
 10
259.75
 20
12.5
 30
0.0
 40
1.6
 41
44.49999999999996
 71
     5
 72
     5
  1
{\Ftxt|c128;6}
 73
     1
 44
1.0
1001
AcDbBlockRepETag
1070
     1
1071
       48
1005
1D65
1001
ACAD
1000
MTEXTBEGIN
1070
    73
1070
     1
1070
    44
1040
1.0
1070
    74
1070
     0
1000
MTEXTEND
1000
ACAD_MTEXT_DEFINED_HEIGHT_BEGIN
1070
    46
1040
5.0
1000
ACAD_MTEXT_DEFINED_HEIGHT_END
  0
MTEXT
  5
1D66
330
8AB
100
AcDbEntity
  8
0
100
AcDbMText
 10
12.5
 20
172.5
 30
0.0
 40
1.6
 41
4.999999999999992
 71
     5
 72
     5
  1
{\Ftxt|c128;A}
 73
     1
 44
1.0
1001
AcDbBlockRepETag
1070
     1
1071
       49
1005
1D66
1001
ACAD
1000
MTEXTBEGIN
1070
    73
1070
     1
1070
    44
1040
1.0
1070
    74
1070
     0
1000
MTEXTEND
1000
ACAD_MTEXT_DEFINED_HEIGHT_BEGIN
1070
    46
1040
45.0
1000
ACAD_MTEXT_DEFINED_HEIGHT_END
  0
MTEXT
  5
1D67
330
8AB
100
AcDbEntity
  8
0
100
AcDbMText
 10
12.5
 20
127.5
 30
0.0
 40
1.6
 41
4.999999999999992
 71
     5
 72
     5
  1
{\Ftxt|c128;B}
 73
     1
 44
1.0
1001
AcDbBlockRepETag
1070
     1
1071
       50
1005
1D67
1001
ACAD
1000
MTEXTBEGIN
1070
    73
1070
     1
1070
    44
1040
1.0
1070
    74
1070
     0
1000
MTEXTEND
1000
ACAD_MTEXT_DEFINED_HEIGHT_BEGIN
1070
    46
1040
45.0
1000
ACAD_MTEXT_DEFINED_HEIGHT_END
  0
MTEXT
  5
1D68
330
8AB
100
AcDbEntity
  8
0
100
AcDbMText
 10
12.5
 20
82.5
 30
0.0
 40
1.6
 41
4.999999999999992
 71
     5
 72
     5
  1
{\Ftxt|c128;C}
 73
     1
 44
1.0
1001
AcDbBlockRepETag
1070
     1
1071
       51
1005
1D68
1001
ACAD
1000
MTEXTBEGIN
1070
    73
1070
     1
1070
    44
1040
1.0
1070
    74
1070
     0
1000
MTEXTEND
1000
ACAD_MTEXT_DEFINED_HEIGHT_BEGIN
1070
    46
1040
45.0
1000
ACAD_MTEXT_DEFINED_HEIGHT_END
  0
MTEXT
  5
1D69
330
8AB
100
AcDbEntity
  8
0
100
AcDbMText
 10
12.5
 20
37.5
 30
0.0
 40
1.6
 41
4.999999999999992
 71
     5
 72
     5
  1
{\Ftxt|c128;D}
 73
     1
 44
1.0
1001
AcDbBlockRepETag
1070
     1
1071
       52
1005
1D69
1001
ACAD
1000
MTEXTBEGIN
1070
    73
1070
     1
1070
    44
1040
1.0
1070
    74
1070
     0
1000
MTEXTEND
1000
ACAD_MTEXT_DEFINED_HEIGHT_BEGIN
1070
    46
1040
45.0
1000
ACAD_MTEXT_DEFINED_HEIGHT_END
  0
MTEXT
  5
1D6A
330
8AB
100
AcDbEntity
  8
0
100
AcDbMText
 10
284.5
 20
172.4999999999999
 30
0.0
 40
1.6
 41
4.999999999999992
 71
     5
 72
     5
  1
{\Ftxt|c128;A}
 73
     1
 44
1.0
1001
AcDbBlockRepETag
1070
     1
1071
       53
1005
1D6A
1001
ACAD
1000
MTEXTBEGIN
1070
    73
1070
     1
1070
    44
1040
1.0
1070
    74
1070
     0
1000
MTEXTEND
1000
ACAD_MTEXT_DEFINED_HEIGHT_BEGIN
1070
    46
1040
45.0
1000
ACAD_MTEXT_DEFINED_HEIGHT_END
  0
MTEXT
  5
1D6B
330
8AB
100
AcDbEntity
  8
0
100
AcDbMText
 10
284.5
 20
127.4999999999999
 30
0.0
 40
1.6
 41
4.999999999999992
 71
     5
 72
     5
  1
{\Ftxt|c128;B}
 73
     1
 44
1.0
1001
AcDbBlockRepETag
1070
     1
1071
       54
1005
1D6B
1001
ACAD
1000
MTEXTBEGIN
1070
    73
1070
     1
1070
    44
1040
1.0
1070
    74
1070
     0
1000
MTEXTEND
1000
ACAD_MTEXT_DEFINED_HEIGHT_BEGIN
1070
    46
1040
45.0
1000
ACAD_MTEXT_DEFINED_HEIGHT_END
  0
MTEXT
  5
1D6C
330
8AB
100
AcDbEntity
  8
0
100
AcDbMText
 10
284.5
 20
82.49999999999991
 30
0.0
 40
1.6
 41
4.999999999999992
 71
     5
 72
     5
  1
{\Ftxt|c128;C}
 73
     1
 44
1.0
1001
AcDbBlockRepETag
1070
     1
1071
       55
1005
1D6C
1001
ACAD
1000
MTEXTBEGIN
1070
    73
1070
     1
1070
    44
1040
1.0
1070
    74
1070
     0
1000
MTEXTEND
1000
ACAD_MTEXT_DEFINED_HEIGHT_BEGIN
1070
    46
1040
45.0
1000
ACAD_MTEXT_DEFINED_HEIGHT_END
  0
MTEXT
  5
1D6D
330
8AB
100
AcDbEntity
  8
0
100
AcDbMText
 10
284.5
 20
37.49999999999992
 30
0.0
 40
1.6
 41
4.999999999999992
 71
     5
 72
     5
  1
{\Ftxt|c128;D}
 73
     1
 44
1.0
1001
AcDbBlockRepETag
1070
     1
1071
       56
1005
1D6D
1001
ACAD
1000
MTEXTBEGIN
1070
    73
1070
     1
1070
    44
1040
1.0
1070
    74
1070
     0
1000
MTEXTEND
1000
ACAD_MTEXT_DEFINED_HEIGHT_BEGIN
1070
    46
1040
45.0
1000
ACAD_MTEXT_DEFINED_HEIGHT_END
  0
LINE
  5
2170
330
8AB
100
AcDbEntity
  8
0
100
AcDbLine
 10
281.9999999999999
 20
30.0
 30
0.0
 11
212.096194219452
 21
30.00000000000002
 31
0.0
1001
AcDbBlockRepETag
1070
     1
1071
      561
1005
2170
  0
LINE
  5
2171
330
8AB
100
AcDbEntity
  8
0
100
AcDbLine
 10
181.9999999999999
 20
50.0
 30
0.0
 11
181.9999999999999
 21
15.0
 31
0.0
1001
AcDbBlockRepETag
1070
     1
1071
      562
1005
2171
  0
LINE
  5
2172
330
8AB
100
AcDbEntity
  8
0
100
AcDbLine
 10
181.9999999999999
 20
40.0
 30
0.0
 11
281.9999999999999
 21
39.99999999999998
 31
0.0
1001
AcDbBlockRepETag
1070
     1
1071
      563
1005
2172
  0
LINE
  5
2173
330
8AB
100
AcDbEntity
  8
0
100
AcDbLine
 10
181.9999999999999
 20
35.00000000000001
 30
0.0
 11
212.096194219452
 21
35.0
 31
0.0
1001
AcDbBlockRepETag
1070
     1
1071
      564
1005
2173
  0
LINE
  5
2174
330
8AB
100
AcDbEntity
  8
0
100
AcDbLine
 10
181.9999999999999
 20
30.00000000000001
 30
0.0
 11
212.096194219452
 21
30.0
 31
0.0
1001
AcDbBlockRepETag
1070
     1
1071
      565
1005
2174
  0
LINE
  5
2175
330
8AB
100
AcDbEntity
  8
0
100
AcDbLine
 10
181.9999999999999
 20
25.00000000000001
 30
0.0
 11
212.096194219452
 21
25.0
 31
0.0
1001
AcDbBlockRepETag
1070
     1
1071
      566
1005
2175
  0
LINE
  5
2176
330
8AB
100
AcDbEntity
  8
0
100
AcDbLine
 10
181.9999999999999
 20
20.00000000000001
 30
0.0
 11
212.096194219452
 21
20.0
 31
0.0
1001
AcDbBlockRepETag
1070
     1
1071
      567
1005
2176
  0
LINE
  5
2177
330
8AB
100
AcDbEntity
  8
0
100
AcDbLine
 10
181.9999999999999
 20
50.0
 30
0.0
 11
281.9999999999999
 21
50.0
 31
0.0
1001
AcDbBlockRepETag
1070
     1
1071
      568
1005
2177
  0
LINE
  5
2178
330
8AB
100
AcDbEntity
  8
0
100
AcDbLine
 10
212.096194219452
 20
50.0
 30
0.0
 11
212.096194219452
 21
15.0
 31
0.0
1001
AcDbBlockRepETag
1070
     1
1071
      569
1005
2178
  0
CIRCLE
  5
2179
330
8AB
100
AcDbEntity
  8
0
100
AcDbCircle
 10
192.0812866212884
 20
45.00834951764214
 30
0.0
 40
2.8
1001
AcDbBlockRepETag
1070
     1
1071
      570
1005
2179
  0
CIRCLE
  5
217A
330
8AB
100
AcDbEntity
  8
0
100
AcDbCircle
 10
192.0812866212884
 20
45.00834951764214
 30
0.0
 40
1.6
1001
AcDbBlockRepETag
1070
     1
1071
      571
1005
217A
  0
LINE
  5
217B
330
8AB
100
AcDbEntity
  8
0
100
AcDbLine
 10
197.2812866212883
 20
46.60834951764214
 30
0.0
 11
204.0812866212884
 21
47.80834951764214
 31
0.0
1001
AcDbBlockRepETag
1070
     1
1071
      572
1005
217B
  0
LINE
  5
217C
330
8AB
100
AcDbEntity
  8
0
100
AcDbLine
 10
197.2812866212883
 20
46.60834951764214
 30
0.0
 11
197.2812866212883
 21
43.40834951764214
 31
0.0
1001
AcDbBlockRepETag
1070
     1
1071
      573
1005
217C
  0
LINE
  5
217D
330
8AB
100
AcDbEntity
  8
0
100
AcDbLine
 10
204.0812866212884
 20
47.80834951764214
 30
0.0
 11
204.0812866212884
 21
42.20834951764214
 31
0.0
1001
AcDbBlockRepETag
1070
     1
1071
      574
1005
217D
  0
LINE
  5
217E
330
8AB
100
AcDbEntity
  8
0
100
AcDbLine
 10
197.2812866212883
 20
43.40834951764214
 30
0.0
 11
204.0812866212884
 21
42.20834951764214
 31
0.0
1001
AcDbBlockRepETag
1070
     1
1071
      575
1005
217E
  0
LINE
  5
217F
330
8AB
100
AcDbEntity
  8
0
100
AcDbLine
 10
192.0812866212884
 20
48.60834951764214
 30
0.0
 11
192.0812866212884
 21
41.40834951764214
 31
0.0
1001
AcDbBlockRepETag
1070
     1
1071
      576
1005
217F
  0
LINE
  5
2180
330
8AB
100
AcDbEntity
  8
0
100
AcDbLine
 10
188.5066509681369
 20
45.00834951764214
 30
0.0
 11
195.6524624469594
 21
45.00834951764214
 31
0.0
1001
AcDbBlockRepETag
1070
     1
1071
      577
1005
2180
  0
LINE
  5
2181
330
8AB
100
AcDbEntity
  8
0
100
AcDbLine
 10
196.4812866212884
 20
45.00834951764214
 30
0.0
 11
204.8812866212884
 21
45.00834951764214
 31
0.0
1001
AcDbBlockRepETag
1070
     1
1071
      578
1005
2181
  0
MTEXT
  5
2182
330
8AB
100
AcDbEntity
  8
0
100
AcDbMText
 10
212.096194219452
 20
39.0
 30
0.0
 40
1.0
 41
11.57994394054014
 71
     1
 72
     5
  1
{\fMS PGothic|b0|i0|c128|p50;　\fArial|b0|i0|c0|p34;Model\fArial|b0|i0|c128|p34; \fArial|b0|i0|c0|p34;ID\fArial|b0|i0|c128|p34; \fArial|b0|i0|c0|p34;/\fArial|b0|i0|c128|p34; \fArial|b0|i0|c0|p34;Item}
 73
     1
 44
1.0
1001
AcDbBlockRepETag
1070
     1
1071
      579
1005
2182
1001
ACAD
1000
MTEXTBEGIN
1070
    73
1070
     1
1070
    44
1040
1.0
1070
    74
1070
     0
1000
MTEXTEND
  0
MTEXT
  5
2183
330
8AB
100
AcDbEntity
  8
0
100
AcDbMText
 10
212.096194219452
 20
49.0
 30
0.0
 40
1.0
 41
12.35757497163229
 71
     1
 72
     5
  1
{\fMS PGothic|b0|i0|c128|p50;　\fArial|b0|i0|c0|p34;Model\fArial|b0|i0|c128|p34; \fArial|b0|i0|c0|p34;ID\fArial|b0|i0|c128|p34; \fArial|b0|i0|c0|p34;/\fArial|b0|i0|c128|p34; \fArial|b0|i0|c0|p34;Item}
 73
     1
 44
1.0
1001
AcDbBlockRepETag
1070
     1
1071
      580
1005
2183
1001
ACAD
1000
MTEXTBEGIN
1070
    73
1070
     1
1070
    44
1040
1.0
1070
    74
1070
     0
1000
MTEXTEND
  0
MTEXT
  5
2184
330
8AB
100
AcDbEntity
  8
0
100
AcDbMText
 10
181.9999999999999
 20
49.0
 30
0.0
 40
1.0
 41
8.780474292418944
 71
     1
 72
     5
  1
{\fMS PGothic|b0|i0|c128|p50;　\fArial|b0|i0|c0|p34;Method}
 73
     1
 44
1.0
1001
AcDbBlockRepETag
1070
     1
1071
      581
1005
2184
1001
ACAD
1000
MTEXTBEGIN
1070
    73
1070
     1
1070
    44
1040
1.0
1070
    74
1070
     0
1000
MTEXTEND
  0
MTEXT
  5
2185
330
8AB
100
AcDbEntity
  8
0
100
AcDbMText
 10
181.9999999999999
 20
34.00000000000001
 30
0.0
 40
1.0
 41
8.780474292418944
 71
     1
 72
     5
  1
{\fMS PGothic|b0|i0|c128|p50;　\fArial|b0|i0|c0|p34;Drawn}
 73
     1
 44
1.0
1001
AcDbBlockRepETag
1070
     1
1071
      582
1005
2185
1001
ACAD
1000
MTEXTBEGIN
1070
    73
1070
     1
1070
    44
1040
1.0
1070
    74
1070
     0
1000
MTEXTEND
  0
MTEXT
  5
2186
330
8AB
100
AcDbEntity
  8
0
100
AcDbMText
 10
181.9999999999999
 20
39.00000000000001
 30
0.0
 40
1.0
 41
8.780474292418944
 71
     1
 72
     5
  1
{\fMS PGothic|b0|i0|c128|p50;　\fArial|b0|i0|c0|p34;Scale}
 73
     1
 44
1.0
1001
AcDbBlockRepETag
1070
     1
1071
      583
1005
2186
1001
ACAD
1000
MTEXTBEGIN
1070
    73
1070
     1
1070
    44
1040
1.0
1070
    74
1070
     0
1000
MTEXTEND
  0
MTEXT
  5
2187
330
8AB
100
AcDbEntity
  8
0
100
AcDbMText
 10
221.4141517002078
 20
19.5
 30
0.0
 40
1.199999999999999
 41
57.31814492727159
 71
     1
 72
     5
  3
{\fArial|b0|i0|c0|p34;4-13-6\fArial|b0|i0|c128|p34; \fArial|b0|i0|c0|p34;Nakarokugo\fArial|b0|i0|c128|p34; \fArial|b0|i0|c0|p34;Ohta-ku\fArial|b0|i0|c128|p34; \fArial|b0|i0|c0|p34;TOKYO\fArial|b0|i0|c128|p34; \fArial|b0|i0|c0|p34;144-0055\fArial|b0|i
  1
0|c128|p34; \fArial|b0|i0|c0|p34;JAPAN}
 73
     1
 44
1.0
1001
AcDbBlockRepETag
1070
     1
1071
      584
1005
2187
1001
ACAD
1000
MTEXTBEGIN
1070
    73
1070
     1
1070
    44
1040
1.0
1070
    74
1070
     0
1000
MTEXTEND
1000
ACAD_MTEXT_DEFINED_HEIGHT_BEGIN
1070
    46
1040
5.000000000000005
1000
ACAD_MTEXT_DEFINED_HEIGHT_END
  0
LINE
  5
2188
330
8AB
100
AcDbEntity
  8
Layer_0
  6
Continuous
100
AcDbLine
 10
221.4007807079617
 20
27.12517191052415
 30
0.0
 11
223.1288162635173
 21
27.12517191052415
 31
0.0
1001
AcDbBlockRepETag
1070
     1
1071
      585
1005
2188
  0
LINE
  5
2189
330
8AB
100
AcDbEntity
  8
Layer_0
  6
Continuous
100
AcDbLine
 10
223.1288162635173
 20
27.12517191052415
 30
0.0
 11
223.1288162635173
 21
25.91219070809574
 31
0.0
1001
AcDbBlockRepETag
1070
     1
1071
      586
1005
2189
  0
LINE
  5
218A
330
8AB
100
AcDbEntity
  8
Layer_0
  6
Continuous
100
AcDbLine
 10
223.1288162635173
 20
25.32531070809568
 30
0.0
 11
223.1288162635173
 21
25.00906195496861
 31
0.0
1001
AcDbBlockRepETag
1070
     1
1071
      587
1005
218A
  0
LINE
  5
218B
330
8AB
100
AcDbEntity
  8
Layer_0
  6
Continuous
100
AcDbLine
 10
223.1288162635173
 20
25.00906195496861
 30
0.0
 11
224.9486740857394
 21
27.12517191052415
 31
0.0
1001
AcDbBlockRepETag
1070
     1
1071
      588
1005
218B
  0
LINE
  5
218C
330
8AB
100
AcDbEntity
  8
Layer_0
  6
Continuous
100
AcDbLine
 10
224.9486740857394
 20
27.12517191052415
 30
0.0
 11
227.2532784857396
 21
27.12517191052415
 31
0.0
1001
AcDbBlockRepETag
1070
     1
1071
      589
1005
218C
  0
LINE
  5
218D
330
8AB
100
AcDbEntity
  8
Layer_0
  6
Continuous
100
AcDbLine
 10
227.2532784857396
 20
27.12517191052415
 30
0.0
 11
225.2035267257394
 21
25.02116635496861
 31
0.0
1001
AcDbBlockRepETag
1070
     1
1071
      590
1005
218D
  0
LINE
  5
218E
330
8AB
100
AcDbEntity
  8
Layer_0
  6
Continuous
100
AcDbLine
 10
225.2035267257394
 20
25.02116635496861
 30
0.0
 11
227.3429407079618
 21
21.52535857719089
 31
0.0
1001
AcDbBlockRepETag
1070
     1
1071
      591
1005
218E
  0
LINE
  5
218F
330
8AB
100
AcDbEntity
  8
Layer_0
  6
Continuous
100
AcDbLine
 10
227.3429407079618
 20
21.52535857719089
 30
0.0
 11
225.2101454279618
 21
21.52535857719089
 31
0.0
1001
AcDbBlockRepETag
1070
     1
1071
      592
1005
218F
  0
LINE
  5
2190
330
8AB
100
AcDbEntity
  8
Layer_0
  6
Continuous
100
AcDbLine
 10
225.2101454279618
 20
21.52535857719089
 30
0.0
 11
224.0264573746285
 21
23.82486038163528
 31
0.0
1001
AcDbBlockRepETag
1070
     1
1071
      593
1005
2190
  0
LINE
  5
2191
330
8AB
100
AcDbEntity
  8
Layer_0
  6
Continuous
100
AcDbLine
 10
224.0264573746285
 20
23.82486038163528
 30
0.0
 11
223.1288162635173
 21
22.89181084385756
 31
0.0
1001
AcDbBlockRepETag
1070
     1
1071
      594
1005
2191
  0
LINE
  5
2192
330
8AB
100
AcDbEntity
  8
Layer_0
  6
Continuous
100
AcDbLine
 10
223.1288162635173
 20
22.89181084385756
 30
0.0
 11
223.1288162635173
 21
21.52535857719089
 31
0.0
1001
AcDbBlockRepETag
1070
     1
1071
      595
1005
2192
  0
LINE
  5
2193
330
8AB
100
AcDbEntity
  8
Layer_0
  6
Continuous
100
AcDbLine
 10
223.1288162635173
 20
21.52535857719089
 30
0.0
 11
221.4007807079617
 21
21.52535857719089
 31
0.0
1001
AcDbBlockRepETag
1070
     1
1071
      596
1005
2193
  0
LINE
  5
2194
330
8AB
100
AcDbEntity
  8
Layer_0
  6
Continuous
100
AcDbLine
 10
221.4007807079617
 20
21.52535857719089
 30
0.0
 11
221.4007807079617
 21
23.59727515254018
 31
0.0
1001
AcDbBlockRepETag
1070
     1
1071
      597
1005
2194
  0
LINE
  5
2195
330
8AB
100
AcDbEntity
  8
Layer_0
  6
Continuous
100
AcDbLine
 10
221.4007807079617
 20
24.18415515254014
 30
0.0
 11
221.4007807079617
 21
27.12517191052415
 31
0.0
1001
AcDbBlockRepETag
1070
     1
1071
      598
1005
2195
  0
LINE
  5
2196
330
8AB
100
AcDbEntity
  8
Layer_0
  6
Continuous
100
AcDbLine
 10
228.2232607079617
 20
27.12517191052415
 30
0.0
 11
230.797348992406
 21
27.12517191052415
 31
0.0
1001
AcDbBlockRepETag
1070
     1
1071
      599
1005
2196
  0
LINE
  5
2197
330
8AB
100
AcDbEntity
  8
Layer_0
  6
Continuous
100
AcDbLine
 10
230.797348992406
 20
27.12517191052415
 30
0.0
 11
230.9895172806877
 21
27.12493986367416
 31
0.0
1001
AcDbBlockRepETag
1070
     1
1071
      600
1005
2197
  0
ARC
  5
2198
330
8AB
100
AcDbEntity
  8
Layer_0
  6
Continuous
100
AcDbCircle
 10
230.9725525871049
 20
24.17121895774676
 30
0.0
 40
2.953769623877473
100
AcDbArc
 50
82.78328108137959
 51
89.67092535604356
1001
AcDbBlockRepETag
1070
     1
1071
      601
1005
2198
  0
ARC
  5
2199
330
8AB
100
AcDbEntity
  8
Layer_0
  6
Continuous
100
AcDbCircle
 10
231.0477559149867
 20
24.82780674244224
 30
0.0
 40
2.292949545823432
100
AcDbArc
 50
66.00751588318008
 51
82.58650734850204
1001
AcDbBlockRepETag
1070
     1
1071
      602
1005
2199
  0
ARC
  5
219A
330
8AB
100
AcDbEntity
  8
Layer_0
  6
Continuous
100
AcDbCircle
 10
231.0427487643562
 20
24.78564061973634
 30
0.0
 40
2.333542317091944
100
AcDbArc
 50
55.56216139977209
 51
66.31617304840354
1001
AcDbBlockRepETag
1070
     1
1071
      603
1005
219A
  0
ARC
  5
219B
330
8AB
100
AcDbEntity
  8
Layer_0
  6
Continuous
100
AcDbCircle
 10
231.2145238341506
 20
25.04981310630671
 30
0.0
 40
2.018542591324589
100
AcDbArc
 50
36.01833520053741
 51
55.34294990271305
1001
AcDbBlockRepETag
1070
     1
1071
      604
1005
219B
  0
ARC
  5
219C
330
8AB
100
AcDbEntity
  8
Layer_0
  6
Continuous
100
AcDbCircle
 10
230.9888715958531
 20
24.88099811430958
 30
0.0
 40
2.300330515813605
100
AcDbArc
 50
23.76514939833105
 51
36.11420386321301
1001
AcDbBlockRepETag
1070
     1
1071
      605
1005
219C
  0
ARC
  5
219D
330
8AB
100
AcDbEntity
  8
Layer_0
  6
Continuous
100
AcDbCircle
 10
230.6446853292265
 20
24.72553036821636
 30
0.0
 40
2.67798563211716
100
AcDbArc
 50
14.91183717987406
 51
23.84177981809747
1001
AcDbBlockRepETag
1070
     1
1071
      606
1005
219D
  0
ARC
  5
219E
330
8AB
100
AcDbEntity
  8
Layer_0
  6
Continuous
100
AcDbCircle
 10
229.9344039421793
 20
24.52996360300562
 30
0.0
 40
3.414678132476109
100
AcDbArc
 50
9.331404880578027
 51
15.01590572961254
1001
AcDbBlockRepETag
1070
     1
1071
      607
1005
219E
  0
ARC
  5
219F
330
8AB
100
AcDbEntity
  8
Layer_0
  6
Continuous
100
AcDbCircle
 10
228.8032092906371
 20
24.33997487042688
 30
0.0
 40
4.561711146503288
100
AcDbArc
 50
4.729289621456031
 51
9.382366194577315
1001
AcDbBlockRepETag
1070
     1
1071
      608
1005
219F
  0
ARC
  5
21A0
330
8AB
100
AcDbEntity
  8
Layer_0
  6
Continuous
100
AcDbCircle
 10
227.9309038578783
 20
24.25467353447731
 30
0.0
 40
5.43809538153211
100
AcDbArc
 50
356.4021595603731
 51
4.867217560082285
1001
AcDbBlockRepETag
1070
     1
1071
      609
1005
21A0
  0
ARC
  5
21A1
330
8AB
100
AcDbEntity
  8
Layer_0
  6
Continuous
100
AcDbCircle
 10
229.2427032624907
 20
24.17888499863363
 30
0.0
 40
4.124130869148689
100
AcDbArc
 50
351.7769211873317
 51
356.3093547467288
1001
AcDbBlockRepETag
1070
     1
1071
      610
1005
21A1
  0
ARC
  5
21A2
330
8AB
100
AcDbEntity
  8
Layer_0
  6
Continuous
100
AcDbCircle
 10
230.3214886186733
 20
24.02511104940788
 30
0.0
 40
3.034443638509187
100
AcDbArc
 50
344.8890264198738
 51
351.7372102321355
1001
AcDbBlockRepETag
1070
     1
1071
      611
1005
21A2
  0
ARC
  5
21A3
330
8AB
100
AcDbEntity
  8
Layer_0
  6
Continuous
100
AcDbCircle
 10
230.8547356907538
 20
23.88168884800813
 30
0.0
 40
2.482246210469892
100
AcDbArc
 50
333.5148007955734
 51
344.8763585205554
1001
AcDbBlockRepETag
1070
     1
1071
      612
1005
21A3
  0
ARC
  5
21A4
330
8AB
100
AcDbEntity
  8
Layer_0
  6
Continuous
100
AcDbCircle
 10
231.0795735122221
 20
23.77527728427491
 30
0.0
 40
2.233554860483748
100
AcDbArc
 50
315.3591181132753
 51
333.3858585799102
1001
AcDbBlockRepETag
1070
     1
1071
      613
1005
21A4
  0
ARC
  5
21A5
330
8AB
100
AcDbEntity
  8
Layer_0
  6
Continuous
100
AcDbCircle
 10
231.2374705545496
 20
23.62675246739593
 30
0.0
 40
2.016851487083524
100
AcDbArc
 50
294.4621373706315
 51
315.2094339427471
1001
AcDbBlockRepETag
1070
     1
1071
      614
1005
21A5
  0
ARC
  5
21A6
330
8AB
100
AcDbEntity
  8
Layer_0
  6
Continuous
100
AcDbCircle
 10
230.9552903813084
 20
24.24293461810179
 30
0.0
 40
2.694571152096585
100
AcDbArc
 50
287.3554571240316
 51
294.4981642017253
1001
AcDbBlockRepETag
1070
     1
1071
      615
1005
21A6
  0
ARC
  5
21A7
330
8AB
100
AcDbEntity
  8
Layer_0
  6
Continuous
100
AcDbCircle
 10
230.7668478969951
 20
24.80695555930901
 30
0.0
 40
3.289146331997433
100
AcDbArc
 50
276.2597223684024
 51
287.5578106691976
1001
AcDbBlockRepETag
1070
     1
1071
      616
1005
21A7
  0
ARC
  5
21A8
330
8AB
100
AcDbEntity
  8
Layer_0
  6
Continuous
100
AcDbCircle
 10
230.8630096065351
 20
24.20861966322581
 30
0.0
 40
2.684064338289446
100
AcDbArc
 50
268.5982260747654
 51
275.6118699056292
1001
AcDbBlockRepETag
1070
     1
1071
      617
1005
21A8
  0
LINE
  5
21A9
330
8AB
100
AcDbEntity
  8
Layer_0
  6
Continuous
100
AcDbLine
 10
230.797348992406
 20
21.52535857719089
 30
0.0
 11
228.2232607079617
 21
21.52535857719089
 31
0.0
1001
AcDbBlockRepETag
1070
     1
1071
      618
1005
21A9
  0
LINE
  5
21AA
330
8AB
100
AcDbEntity
  8
Layer_0
  6
Continuous
100
AcDbLine
 10
228.2232607079617
 20
21.52535857719089
 30
0.0
 11
228.2232607079617
 21
27.12517191052415
 31
0.0
1001
AcDbBlockRepETag
1070
     1
1071
      619
1005
21AA
  0
LINE
  5
21AB
330
8AB
100
AcDbEntity
  8
Layer_0
  6
Continuous
100
AcDbLine
 10
229.9512962635173
 20
25.85359857719083
 30
0.0
 11
229.9512962635173
 21
22.79693191052421
 31
0.0
1001
AcDbBlockRepETag
1070
     1
1071
      620
1005
21AB
  0
LINE
  5
21AC
330
8AB
100
AcDbEntity
  8
Layer_0
  6
Continuous
100
AcDbLine
 10
229.9512962635173
 20
22.79693191052421
 30
0.0
 11
230.378080290184
 21
22.79693191052421
 31
0.0
1001
AcDbBlockRepETag
1070
     1
1071
      621
1005
21AC
  0
LINE
  5
21AD
330
8AB
100
AcDbEntity
  8
Layer_0
  6
Continuous
100
AcDbLine
 10
230.378080290184
 20
22.79693191052421
 30
0.0
 11
230.5430900032413
 21
22.79738840458673
 31
0.0
1001
AcDbBlockRepETag
1070
     1
1071
      622
1005
21AD
  0
ARC
  5
21AE
330
8AB
100
AcDbEntity
  8
Layer_0
  6
Continuous
100
AcDbCircle
 10
230.5200579086076
 20
24.87278067980525
 30
0.0
 40
2.075520072998644
100
AcDbArc
 50
270.6358256510954
 51
277.7703754589051
1001
AcDbBlockRepETag
1070
     1
1071
      623
1005
21AE
  0
ARC
  5
21AF
330
8AB
100
AcDbEntity
  8
Layer_0
  6
Continuous
100
AcDbCircle
 10
230.6488048599046
 20
23.90858326547231
 30
0.0
 40
1.102772573416841
100
AcDbArc
 50
277.9157427807076
 51
290.1128099141905
1001
AcDbBlockRepETag
1070
     1
1071
      624
1005
21AF
  0
ARC
  5
21B0
330
8AB
100
AcDbEntity
  8
Layer_0
  6
Continuous
100
AcDbCircle
 10
230.7530812622323
 20
23.61587364590468
 30
0.0
 40
0.7920603871756892
100
AcDbArc
 50
290.3107692825324
 51
334.6067063594055
1001
AcDbBlockRepETag
1070
     1
1071
      625
1005
21B0
  0
ARC
  5
21B1
330
8AB
100
AcDbEntity
  8
Layer_0
  6
Continuous
100
AcDbCircle
 10
230.4618375940369
 20
23.76019869176275
 30
0.0
 40
1.117069991765285
100
AcDbArc
 50
334.3252551100962
 51
343.2906517439327
1001
AcDbBlockRepETag
1070
     1
1071
      626
1005
21B1
  0
ARC
  5
21B2
330
8AB
100
AcDbEntity
  8
Layer_0
  6
Continuous
100
AcDbCircle
 10
229.9184903928289
 20
23.92862387038644
 30
0.0
 40
1.685907438892151
100
AcDbArc
 50
343.1175964371864
 51
349.2027813687037
1001
AcDbBlockRepETag
1070
     1
1071
      627
1005
21B2
  0
ARC
  5
21B3
330
8AB
100
AcDbEntity
  8
Layer_0
  6
Continuous
100
AcDbCircle
 10
229.0068126809603
 20
24.1071197071144
 30
0.0
 40
2.614887351844403
100
AcDbArc
 50
349.1031302907525
 51
353.785396708026
1001
AcDbBlockRepETag
1070
     1
1071
      628
1005
21B3
  0
ARC
  5
21B4
330
8AB
100
AcDbEntity
  8
Layer_0
  6
Continuous
100
AcDbCircle
 10
227.4230422820701
 20
24.28154853857892
 30
0.0
 40
4.208233427112191
100
AcDbArc
 50
353.7587613175318
 51
5.277618527404415
1001
AcDbBlockRepETag
1070
     1
1071
      629
1005
21B4
  0
ARC
  5
21B5
330
8AB
100
AcDbEntity
  8
Layer_0
  6
Continuous
100
AcDbCircle
 10
228.7690714538062
 20
24.39633965515076
 30
0.0
 40
2.857367607989937
100
AcDbArc
 50
5.46822185943644
 51
9.935238513215459
1001
AcDbBlockRepETag
1070
     1
1071
      630
1005
21B5
  0
ARC
  5
21B6
330
8AB
100
AcDbEntity
  8
Layer_0
  6
Continuous
100
AcDbCircle
 10
229.6222080048746
 20
24.54389011593911
 30
0.0
 40
1.991568462990139
100
AcDbArc
 50
9.988696142101114
 51
14.78120408781236
1001
AcDbBlockRepETag
1070
     1
1071
      631
1005
21B6
  0
ARC
  5
21B7
330
8AB
100
AcDbEntity
  8
Layer_0
  6
Continuous
100
AcDbCircle
 10
230.152469695289
 20
24.68362672308523
 30
0.0
 40
1.44320385928803
100
AcDbArc
 50
14.78805590446052
 51
25.10688374556531
1001
AcDbBlockRepETag
1070
     1
1071
      632
1005
21B7
  0
ARC
  5
21B8
330
8AB
100
AcDbEntity
  8
Layer_0
  6
Continuous
100
AcDbCircle
 10
230.4532669783325
 20
24.82233401963287
 30
0.0
 40
1.111973762003066
100
AcDbArc
 50
25.21142166954169
 51
38.40722282261089
1001
AcDbBlockRepETag
1070
     1
1071
      633
1005
21B8
  0
ARC
  5
21B9
330
8AB
100
AcDbEntity
  8
Layer_0
  6
Continuous
100
AcDbCircle
 10
230.6273379382286
 20
24.95883745557557
 30
0.0
 40
0.8907676044643009
100
AcDbArc
 50
38.48278980500894
 51
59.57729909510552
1001
AcDbBlockRepETag
1070
     1
1071
      634
1005
21B9
  0
ARC
  5
21BA
330
8AB
100
AcDbEntity
  8
Layer_0
  6
Continuous
100
AcDbCircle
 10
230.6464476518065
 20
24.97374855358839
 30
0.0
 40
0.8682787805513154
100
AcDbArc
 50
60.16644447907488
 51
75.95565955372562
1001
AcDbBlockRepETag
1070
     1
1071
      635
1005
21BA
  0
ARC
  5
21BB
330
8AB
100
AcDbEntity
  8
Layer_0
  6
Continuous
100
AcDbCircle
 10
230.5632279883318
 20
24.64997635786028
 30
0.0
 40
1.202569932234447
100
AcDbArc
 50
75.8526808306885
 51
88.25666622715564
1001
AcDbBlockRepETag
1070
     1
1071
      636
1005
21BB
  0
ARC
  5
21BC
330
8AB
100
AcDbEntity
  8
Layer_0
  6
Continuous
100
AcDbCircle
 10
230.4554284745502
 20
20.88444397099214
 30
0.0
 40
4.969643555338541
100
AcDbArc
 50
88.33513638607392
 51
90.803730434891
1001
AcDbBlockRepETag
1070
     1
1071
      637
1005
21BC
  0
LINE
  5
21BD
330
8AB
100
AcDbEntity
  8
Layer_0
  6
Continuous
100
AcDbLine
 10
230.385717881295
 20
25.85359857719083
 30
0.0
 11
229.9512962635173
 21
25.85359857719083
 31
0.0
1001
AcDbBlockRepETag
1070
     1
1071
      638
1005
21BD
  0
LINE
  5
21BE
330
8AB
100
AcDbEntity
  8
Layer_0
  6
Continuous
100
AcDbLine
 10
237.9603652571881
 20
22.44643413274638
 30
0.0
 11
236.0032019682994
 21
22.44643413274638
 31
0.0
1001
AcDbBlockRepETag
1070
     1
1071
      639
1005
21BE
  0
LINE
  5
21BF
330
8AB
100
AcDbEntity
  8
Layer_0
  6
Continuous
100
AcDbLine
 10
236.0032019682994
 20
22.44643413274638
 30
0.0
 11
235.7232683594104
 21
21.52535857719089
 31
0.0
1001
AcDbBlockRepETag
1070
     1
1071
      640
1005
21BF
  0
LINE
  5
21C0
330
8AB
100
AcDbEntity
  8
Layer_0
  6
Continuous
100
AcDbLine
 10
235.7232683594104
 20
21.52535857719089
 30
0.0
 11
233.9558792394104
 21
21.52535857719089
 31
0.0
1001
AcDbBlockRepETag
1070
     1
1071
      641
1005
21C0
  0
LINE
  5
21C1
330
8AB
100
AcDbEntity
  8
Layer_0
  6
Continuous
100
AcDbLine
 10
233.9558792394104
 20
21.52535857719089
 30
0.0
 11
236.0580997016327
 21
27.12517191052415
 31
0.0
1001
AcDbBlockRepETag
1070
     1
1071
      642
1005
21C1
  0
LINE
  5
21C2
330
8AB
100
AcDbEntity
  8
Layer_0
  6
Continuous
100
AcDbLine
 10
236.0580997016327
 20
27.12517191052415
 30
0.0
 11
237.9562897016326
 21
27.12517191052415
 31
0.0
1001
AcDbBlockRepETag
1070
     1
1071
      643
1005
21C2
  0
LINE
  5
21C3
330
8AB
100
AcDbEntity
  8
Layer_0
  6
Continuous
100
AcDbLine
 10
237.9562897016326
 20
27.12517191052415
 30
0.0
 11
240.0529103505216
 21
21.52535857719089
 31
0.0
1001
AcDbBlockRepETag
1070
     1
1071
      644
1005
21C3
  0
LINE
  5
21C4
330
8AB
100
AcDbEntity
  8
Layer_0
  6
Continuous
100
AcDbLine
 10
240.0529103505216
 20
21.52535857719089
 30
0.0
 11
238.2405597016326
 21
21.52535857719089
 31
0.0
1001
AcDbBlockRepETag
1070
     1
1071
      645
1005
21C4
  0
LINE
  5
21C5
330
8AB
100
AcDbEntity
  8
Layer_0
  6
Continuous
100
AcDbLine
 10
238.2405597016326
 20
21.52535857719089
 30
0.0
 11
237.9603652571881
 21
22.44643413274638
 31
0.0
1001
AcDbBlockRepETag
1070
     1
1071
      646
1005
21C5
  0
LINE
  5
21C6
330
8AB
100
AcDbEntity
  8
Layer_0
  6
Continuous
100
AcDbLine
 10
237.5935652571881
 20
23.66094968830202
 30
0.0
 11
236.9840170171883
 21
25.67376061274637
 31
0.0
1001
AcDbBlockRepETag
1070
     1
1071
      647
1005
21C6
  0
LINE
  5
21C7
330
8AB
100
AcDbEntity
  8
Layer_0
  6
Continuous
100
AcDbLine
 10
236.9840170171883
 20
25.67376061274637
 30
0.0
 11
236.3723005816327
 21
23.66094968830202
 31
0.0
1001
AcDbBlockRepETag
1070
     1
1071
      648
1005
21C7
  0
LINE
  5
21C8
330
8AB
100
AcDbEntity
  8
Layer_0
  6
Continuous
100
AcDbLine
 10
236.3723005816327
 20
23.66094968830202
 30
0.0
 11
237.5935652571881
 21
23.66094968830202
 31
0.0
1001
AcDbBlockRepETag
1070
     1
1071
      649
1005
21C8
  0
LINE
  5
21C9
330
8AB
100
AcDbEntity
  8
Layer_0
  6
Continuous
100
AcDbLine
 10
244.2080366062234
 20
23.17548254481812
 30
0.0
 11
245.26931127289
 21
22.85355115104039
 31
0.0
1001
AcDbBlockRepETag
1070
     1
1071
      650
1005
21C9
  0
LINE
  5
21CA
330
8AB
100
AcDbEntity
  8
Layer_0
  6
Continuous
100
AcDbLine
 10
245.26931127289
 20
22.85355115104039
 30
0.0
 11
245.2382882287726
 21
22.72597762849466
 31
0.0
1001
AcDbBlockRepETag
1070
     1
1071
      651
1005
21CA
  0
ARC
  5
21CB
330
8AB
100
AcDbEntity
  8
Layer_0
  6
Continuous
100
AcDbCircle
 10
243.7574030094781
 20
23.10767762069644
 30
0.0
 40
1.529286080748814
100
AcDbArc
 50
325.0271288511945
 51
345.5465361720434
1001
AcDbBlockRepETag
1070
     1
1071
      652
1005
21CB
  0
ARC
  5
21CC
330
8AB
100
AcDbEntity
  8
Layer_0
  6
Continuous
100
AcDbCircle
 10
243.5350592521747
 20
23.24554583325038
 30
0.0
 40
1.790562752417546
100
AcDbArc
 50
311.9384996449337
 51
325.4902336350149
1001
AcDbBlockRepETag
1070
     1
1071
      653
1005
21CC
  0
ARC
  5
21CD
330
8AB
100
AcDbEntity
  8
Layer_0
  6
Continuous
100
AcDbCircle
 10
243.7955794103217
 20
22.96027718366099
 30
0.0
 40
1.40425146842789
100
AcDbArc
 50
287.8765154735583
 51
311.8105092976473
1001
AcDbBlockRepETag
1070
     1
1071
      654
1005
21CD
  0
ARC
  5
21CE
330
8AB
100
AcDbEntity
  8
Layer_0
  6
Continuous
100
AcDbCircle
 10
243.650922735519
 20
23.38870536937656
 30
0.0
 40
1.856410250773953
100
AcDbArc
 50
280.0561408280625
 51
288.0666233144071
1001
AcDbBlockRepETag
1070
     1
1071
      655
1005
21CE
  0
ARC
  5
21CF
330
8AB
100
AcDbEntity
  8
Layer_0
  6
Continuous
100
AcDbCircle
 10
243.5105260776495
 20
24.16156474628883
 30
0.0
 40
2.64191342673201
100
AcDbArc
 50
273.7667803134696
 51
280.1274577621772
1001
AcDbBlockRepETag
1070
     1
1071
      656
1005
21CF
  0
ARC
  5
21D0
330
8AB
100
AcDbEntity
  8
Layer_0
  6
Continuous
100
AcDbCircle
 10
243.4600198139626
 20
24.76389037448746
 30
0.0
 40
3.246273949803888
100
AcDbArc
 50
262.7977890050909
 51
273.9578766891088
1001
AcDbBlockRepETag
1070
     1
1071
      657
1005
21D0
  0
ARC
  5
21D1
330
8AB
100
AcDbEntity
  8
Layer_0
  6
Continuous
100
AcDbCircle
 10
243.3629065951167
 20
23.95435058179998
 30
0.0
 40
2.430951751655812
100
AcDbArc
 50
256.9575693125501
 51
262.6764954993242
1001
AcDbBlockRepETag
1070
     1
1071
      658
1005
21D1
  0
ARC
  5
21D2
330
8AB
100
AcDbEntity
  8
Layer_0
  6
Continuous
100
AcDbCircle
 10
243.2273881703163
 20
23.36802629061457
 30
0.0
 40
1.829169978604294
100
AcDbArc
 50
248.0242698651958
 51
256.9483344352153
1001
AcDbBlockRepETag
1070
     1
1071
      659
1005
21D2
  0
ARC
  5
21D3
330
8AB
100
AcDbEntity
  8
Layer_0
  6
Continuous
100
AcDbCircle
 10
243.1125649429002
 20
23.07379890996355
 30
0.0
 40
1.513356338376751
100
AcDbArc
 50
224.6806860671332
 51
247.8870838605167
1001
AcDbBlockRepETag
1070
     1
1071
      660
1005
21D3
  0
ARC
  5
21D4
330
8AB
100
AcDbEntity
  8
Layer_0
  6
Continuous
100
AcDbCircle
 10
243.229922318547
 20
23.19549429062647
 30
0.0
 40
1.682377221044235
100
AcDbArc
 50
207.8287111073607
 51
224.8172331216356
1001
AcDbBlockRepETag
1070
     1
1071
      661
1005
21D4
  0
ARC
  5
21D5
330
8AB
100
AcDbEntity
  8
Layer_0
  6
Continuous
100
AcDbCircle
 10
243.479977842267
 20
23.33147126185679
 30
0.0
 40
1.966994366243519
100
AcDbArc
 50
197.5660937695379
 51
207.9311699887151
1001
AcDbBlockRepETag
1070
     1
1071
      662
1005
21D5
  0
ARC
  5
21D6
330
8AB
100
AcDbEntity
  8
Layer_0
  6
Continuous
100
AcDbCircle
 10
243.8739170638684
 20
23.45955152389546
 30
0.0
 40
2.381221510884301
100
AcDbArc
 50
189.971680154902
 51
197.6434438351593
1001
AcDbBlockRepETag
1070
     1
1071
      663
1005
21D6
  0
ARC
  5
21D7
330
8AB
100
AcDbEntity
  8
Layer_0
  6
Continuous
100
AcDbCircle
 10
244.4060437752238
 20
23.5561845999573
 30
0.0
 40
2.922044318476163
100
AcDbArc
 50
174.259520529031
 51
190.0310826211783
1001
AcDbBlockRepETag
1070
     1
1071
      664
1005
21D7
  0
ARC
  5
21D8
330
8AB
100
AcDbEntity
  8
Layer_0
  6
Continuous
100
AcDbCircle
 10
243.9783967746036
 20
23.59661840659282
 30
0.0
 40
2.492498900328154
100
AcDbArc
 50
167.9001676470146
 51
174.2010550302072
1001
AcDbBlockRepETag
1070
     1
1071
      665
1005
21D8
  0
ARC
  5
21D9
330
8AB
100
AcDbEntity
  8
Layer_0
  6
Continuous
100
AcDbCircle
 10
243.5592897379083
 20
23.68687105930234
 30
0.0
 40
2.063784473263114
100
AcDbArc
 50
160.4452650310792
 51
167.9111663255901
1001
AcDbBlockRepETag
1070
     1
1071
      666
1005
21D9
  0
ARC
  5
21DA
330
8AB
100
AcDbEntity
  8
Layer_0
  6
Continuous
100
AcDbCircle
 10
243.2411908118292
 20
23.79850314089048
 30
0.0
 40
1.726669210397069
100
AcDbArc
 50
143.2323998287097
 51
160.4029031357022
1001
AcDbBlockRepETag
1070
     1
1071
      667
1005
21DA
  0
ARC
  5
21DB
330
8AB
100
AcDbEntity
  8
Layer_0
  6
Continuous
100
AcDbCircle
 10
243.1804730746778
 20
23.83814906409918
 30
0.0
 40
1.654305518727587
100
AcDbArc
 50
113.694541801403
 51
143.0736115810193
1001
AcDbBlockRepETag
1070
     1
1071
      668
1005
21DB
  0
ARC
  5
21DC
330
8AB
100
AcDbEntity
  8
Layer_0
  6
Continuous
100
AcDbCircle
 10
243.2520773323358
 20
23.68158396607066
 30
0.0
 40
1.826449166370877
100
AcDbArc
 50
105.5043101883972
 51
113.7776958347009
1001
AcDbBlockRepETag
1070
     1
1071
      669
1005
21DC
  0
ARC
  5
21DD
330
8AB
100
AcDbEntity
  8
Layer_0
  6
Continuous
100
AcDbCircle
 10
243.3623342086161
 20
23.29174711638438
 30
0.0
 40
2.231573779199986
100
AcDbArc
 50
98.63392910600104
 51
105.5566113300539
1001
AcDbBlockRepETag
1070
     1
1071
      670
1005
21DD
  0
ARC
  5
21DE
330
8AB
100
AcDbEntity
  8
Layer_0
  6
Continuous
100
AcDbCircle
 10
243.4333519623455
 20
22.80270667058016
 30
0.0
 40
2.725735376134221
100
AcDbArc
 50
78.34438713217277
 51
98.56661781291567
1001
AcDbBlockRepETag
1070
     1
1071
      671
1005
21DE
  0
ARC
  5
21DF
330
8AB
100
AcDbEntity
  8
Layer_0
  6
Continuous
100
AcDbCircle
 10
243.5584219687779
 20
23.43951554729994
 30
0.0
 40
2.076799164148299
100
AcDbArc
 50
69.89002992839475
 51
78.1743697152137
1001
AcDbBlockRepETag
1070
     1
1071
      672
1005
21DF
  0
ARC
  5
21E0
330
8AB
100
AcDbEntity
  8
Layer_0
  6
Continuous
100
AcDbCircle
 10
243.6711597527728
 20
23.74958652292775
 30
0.0
 40
1.746870144226141
100
AcDbArc
 50
59.08892718453646
 51
69.86559777442479
1001
AcDbBlockRepETag
1070
     1
1071
      673
1005
21E0
  0
ARC
  5
21E1
330
8AB
100
AcDbEntity
  8
Layer_0
  6
Continuous
100
AcDbCircle
 10
243.8089849217007
 20
23.9807476864397
 30
0.0
 40
1.477740128553057
100
AcDbArc
 50
43.98876304565191
 51
59.06954617083122
1001
AcDbBlockRepETag
1070
     1
1071
      674
1005
21E1
  0
ARC
  5
21E2
330
8AB
100
AcDbEntity
  8
Layer_0
  6
Continuous
100
AcDbCircle
 10
243.9006514314912
 20
24.0816027406264
 30
0.0
 40
1.341772204166706
100
AcDbArc
 50
21.04507451157868
 51
43.60876674158159
1001
AcDbBlockRepETag
1070
     1
1071
      675
1005
21E2
  0
ARC
  5
21E3
330
8AB
100
AcDbEntity
  8
Layer_0
  6
Continuous
100
AcDbCircle
 10
241.5573088005849
 20
23.19753824635597
 30
0.0
 40
3.846314247197144
100
AcDbArc
 50
17.31242054331939
 51
20.80071690899542
1001
AcDbBlockRepETag
1070
     1
1071
      676
1005
21E3
  0
LINE
  5
21E4
330
8AB
100
AcDbEntity
  8
Layer_0
  6
Continuous
100
AcDbLine
 10
245.2293708284457
 20
24.34213151548487
 30
0.0
 11
244.1566846062234
 21
24.10552432259589
 31
0.0
1001
AcDbBlockRepETag
1070
     1
1071
      677
1005
21E4
  0
LINE
  5
21E5
330
8AB
100
AcDbEntity
  8
Layer_0
  6
Continuous
100
AcDbLine
 10
244.1566846062234
 20
24.10552432259589
 30
0.0
 11
244.1324339604036
 21
24.17994288765498
 31
0.0
1001
AcDbBlockRepETag
1070
     1
1071
      678
1005
21E5
  0
ARC
  5
21E6
330
8AB
100
AcDbEntity
  8
Layer_0
  6
Continuous
100
AcDbCircle
 10
243.4639567545038
 20
23.94737405113676
 30
0.0
 40
0.7077782410664652
100
AcDbArc
 50
19.18321521511087
 51
52.24442260679607
1001
AcDbBlockRepETag
1070
     1
1071
      679
1005
21E6
  0
ARC
  5
21E7
330
8AB
100
AcDbEntity
  8
Layer_0
  6
Continuous
100
AcDbCircle
 10
243.5318287811867
 20
24.01469598338269
 30
0.0
 40
0.6131200835810951
100
AcDbArc
 50
53.40709174973746
 51
74.08080268379113
1001
AcDbBlockRepETag
1070
     1
1071
      680
1005
21E7
  0
ARC
  5
21E8
330
8AB
100
AcDbEntity
  8
Layer_0
  6
Continuous
100
AcDbCircle
 10
243.4344514155879
 20
23.69316390340963
 30
0.0
 40
0.9490457037515586
100
AcDbArc
 50
73.75161599243971
 51
95.66081154367353
1001
AcDbBlockRepETag
1070
     1
1071
      681
1005
21E8
  0
ARC
  5
21E9
330
8AB
100
AcDbEntity
  8
Layer_0
  6
Continuous
100
AcDbCircle
 10
243.4108560617148
 20
23.9591365843604
 30
0.0
 40
0.6820482389557877
100
AcDbArc
 50
95.89224983815197
 51
110.9533299586148
1001
AcDbBlockRepETag
1070
     1
1071
      682
1005
21E9
  0
ARC
  5
21EA
330
8AB
100
AcDbEntity
  8
Layer_0
  6
Continuous
100
AcDbCircle
 10
243.3691438435123
 20
24.0787235310895
 30
0.0
 40
0.5554658133254394
100
AcDbArc
 50
111.3464652684465
 51
134.1543946314873
1001
AcDbBlockRepETag
1070
     1
1071
      683
1005
21EA
  0
ARC
  5
21EB
330
8AB
100
AcDbEntity
  8
Layer_0
  6
Continuous
100
AcDbCircle
 10
243.4593644122771
 20
23.98346074279004
 30
0.0
 40
0.6866626205494999
100
AcDbArc
 50
134.0184372447334
 51
145.6640827458581
1001
AcDbBlockRepETag
1070
     1
1071
      684
1005
21EB
  0
ARC
  5
21EC
330
8AB
100
AcDbEntity
  8
Layer_0
  6
Continuous
100
AcDbCircle
 10
243.6232093525033
 20
23.87044946182197
 30
0.0
 40
0.8857005119862384
100
AcDbArc
 50
145.6056831623284
 51
155.6385511141901
1001
AcDbBlockRepETag
1070
     1
1071
      685
1005
21EC
  0
ARC
  5
21ED
330
8AB
100
AcDbEntity
  8
Layer_0
  6
Continuous
100
AcDbCircle
 10
243.8905129959759
 20
23.74762064426465
 30
0.0
 40
1.179870798278076
100
AcDbArc
 50
155.5593087456232
 51
164.0387762881442
1001
AcDbBlockRepETag
1070
     1
1071
      686
1005
21ED
  0
ARC
  5
21EE
330
8AB
100
AcDbEntity
  8
Layer_0
  6
Continuous
100
AcDbCircle
 10
244.2962003156953
 20
23.62982373172041
 30
0.0
 40
1.602311555640956
100
AcDbArc
 50
163.9780954502647
 51
171.0320491165194
1001
AcDbBlockRepETag
1070
     1
1071
      687
1005
21EE
  0
ARC
  5
21EF
330
8AB
100
AcDbEntity
  8
Layer_0
  6
Continuous
100
AcDbCircle
 10
245.1790267912808
 20
23.49328877894458
 30
0.0
 40
2.495630939150778
100
AcDbArc
 50
171.0952036120178
 51
187.41951050073
1001
AcDbBlockRepETag
1070
     1
1071
      688
1005
21EF
  0
ARC
  5
21F0
330
8AB
100
AcDbEntity
  8
Layer_0
  6
Continuous
100
AcDbCircle
 10
244.3805643392161
 20
23.39499472199975
 30
0.0
 40
1.691170177032612
100
AcDbArc
 50
187.6104890858929
 51
192.6798873398592
1001
AcDbBlockRepETag
1070
     1
1071
      689
1005
21F0
  0
ARC
  5
21F1
330
8AB
100
AcDbEntity
  8
Layer_0
  6
Continuous
100
AcDbCircle
 10
243.8492561965292
 20
23.27449276506706
 30
0.0
 40
1.14636951312061
100
AcDbArc
 50
192.6329566337054
 51
201.4686768516423
1001
AcDbBlockRepETag
1070
     1
1071
      690
1005
21F1
  0
ARC
  5
21F2
330
8AB
100
AcDbEntity
  8
Layer_0
  6
Continuous
100
AcDbCircle
 10
243.5330473366211
 20
23.15183853069254
 30
0.0
 40
0.8072109475011625
100
AcDbArc
 50
201.5812414955739
 51
212.5393884931736
1001
AcDbBlockRepETag
1070
     1
1071
      691
1005
21F2
  0
ARC
  5
21F3
330
8AB
100
AcDbEntity
  8
Layer_0
  6
Continuous
100
AcDbCircle
 10
243.3563998537185
 20
23.03783330708779
 30
0.0
 40
0.5969732100250226
100
AcDbArc
 50
212.4344012743367
 51
251.1757920805109
1001
AcDbBlockRepETag
1070
     1
1071
      692
1005
21F3
  0
ARC
  5
21F4
330
8AB
100
AcDbEntity
  8
Layer_0
  6
Continuous
100
AcDbCircle
 10
243.4245254428367
 20
23.23211365076599
 30
0.0
 40
0.8028458751552188
100
AcDbArc
 50
251.0477497403591
 51
268.1117935039209
1001
AcDbBlockRepETag
1070
     1
1071
      693
1005
21F4
  0
ARC
  5
21F5
330
8AB
100
AcDbEntity
  8
Layer_0
  6
Continuous
100
AcDbCircle
 10
243.4341211631517
 20
23.28816020264741
 30
0.0
 40
0.8592130655064822
100
AcDbArc
 50
267.5953983699861
 51
285.4898940521661
1001
AcDbBlockRepETag
1070
     1
1071
      694
1005
21F5
  0
ARC
  5
21F6
330
8AB
100
AcDbEntity
  8
Layer_0
  6
Continuous
100
AcDbCircle
 10
243.4805950628508
 20
23.10312083249971
 30
0.0
 40
0.668499113710502
100
AcDbArc
 50
285.8869240374019
 51
318.2944822518432
1001
AcDbBlockRepETag
1070
     1
1071
      695
1005
21F6
  0
ARC
  5
21F7
330
8AB
100
AcDbEntity
  8
Layer_0
  6
Continuous
100
AcDbCircle
 10
243.3539805117438
 20
23.21925054103064
 30
0.0
 40
0.8402912253227562
100
AcDbArc
 50
318.1265757342556
 51
340.9755019108657
1001
AcDbBlockRepETag
1070
     1
1071
      696
1005
21F7
  0
ARC
  5
21F8
330
8AB
100
AcDbEntity
  8
Layer_0
  6
Continuous
100
AcDbCircle
 10
242.7033190271158
 20
23.44275838325676
 30
0.0
 40
1.52827071119236
100
AcDbArc
 50
341.0054195226585
 51
349.9278736093303
1001
AcDbBlockRepETag
1070
     1
1071
      697
1005
21F8
  0
LINE
  5
21F9
330
8AB
100
AcDbEntity
  8
Layer_0
  6
Continuous
100
AcDbLine
 10
245.5749342326344
 20
22.96724740966385
 30
0.0
 11
245.5750804726699
 21
23.11115891240535
 31
0.0
1001
AcDbBlockRepETag
1070
     1
1071
      698
1005
21F9
  0
ARC
  5
21FA
330
8AB
100
AcDbEntity
  8
Layer_0
  6
Continuous
100
AcDbCircle
 10
246.7940652682018
 20
23.1026840871317
 30
0.0
 40
1.219014255208458
100
AcDbArc
 50
172.9400003992187
 51
179.6016653375392
1001
AcDbBlockRepETag
1070
     1
1071
      699
1005
21FA
  0
ARC
  5
21FB
330
8AB
100
AcDbEntity
  8
Layer_0
  6
Continuous
100
AcDbCircle
 10
246.6023460413955
 20
23.12219364063355
 30
0.0
 40
1.026359355984301
100
AcDbArc
 50
151.505510000468
 51
172.7054081293679
1001
AcDbBlockRepETag
1070
     1
1071
      700
1005
21FB
  0
ARC
  5
21FC
330
8AB
100
AcDbEntity
  8
Layer_0
  6
Continuous
100
AcDbCircle
 10
246.7373605721915
 20
23.05184620525801
 30
0.0
 40
1.178582418056825
100
AcDbArc
 50
145.2137102365826
 51
151.6312358853241
1001
AcDbBlockRepETag
1070
     1
1071
      701
1005
21FC
  0
ARC
  5
21FD
330
8AB
100
AcDbEntity
  8
Layer_0
  6
Continuous
100
AcDbCircle
 10
246.9349830293055
 20
22.9148362025445
 30
0.0
 40
1.419053487497617
100
AcDbArc
 50
137.331138684686
 51
145.2226987603807
1001
AcDbBlockRepETag
1070
     1
1071
      702
1005
21FD
  0
ARC
  5
21FE
330
8AB
100
AcDbEntity
  8
Layer_0
  6
Continuous
100
AcDbCircle
 10
247.099065576612
 20
22.76102964154347
 30
0.0
 40
1.643945641061579
100
AcDbArc
 50
108.6718393714938
 51
137.2655201889723
1001
AcDbBlockRepETag
1070
     1
1071
      703
1005
21FE
  0
ARC
  5
21FF
330
8AB
100
AcDbEntity
  8
Layer_0
  6
Continuous
100
AcDbCircle
 10
247.1421998024143
 20
22.6386065240573
 30
0.0
 40
1.773735450592888
100
AcDbArc
 50
104.4371398018016
 51
108.7258014194255
1001
AcDbBlockRepETag
1070
     1
1071
      704
1005
21FF
  0
ARC
  5
2200
330
8AB
100
AcDbEntity
  8
Layer_0
  6
Continuous
100
AcDbCircle
 10
247.2028552744627
 20
22.40032450669263
 30
0.0
 40
2.019615531885811
100
AcDbArc
 50
98.59619757283777
 51
104.4181933713803
1001
AcDbBlockRepETag
1070
     1
1071
      705
1005
2200
  0
ARC
  5
2201
330
8AB
100
AcDbEntity
  8
Layer_0
  6
Continuous
100
AcDbCircle
 10
247.2387996969266
 20
22.16727873740887
 30
0.0
 40
2.255416049394947
100
AcDbArc
 50
82.60827607383445
 51
98.61416675715688
1001
AcDbBlockRepETag
1070
     1
1071
      706
1005
2201
  0
ARC
  5
2202
330
8AB
100
AcDbEntity
  8
Layer_0
  6
Continuous
100
AcDbCircle
 10
247.2760738490499
 20
22.47478449815241
 30
0.0
 40
1.945672062302688
100
AcDbArc
 50
76.5286760460415
 51
82.53180170968986
1001
AcDbBlockRepETag
1070
     1
1071
      707
1005
2202
  0
ARC
  5
2203
330
8AB
100
AcDbEntity
  8
Layer_0
  6
Continuous
100
AcDbCircle
 10
247.3379111001433
 20
22.73804487666688
 30
0.0
 40
1.675249763229236
100
AcDbArc
 50
71.98715224693913
 51
76.48787768550815
1001
AcDbBlockRepETag
1070
     1
1071
      708
1005
2203
  0
ARC
  5
2204
330
8AB
100
AcDbEntity
  8
Layer_0
  6
Continuous
100
AcDbCircle
 10
247.4186926726886
 20
22.98152681630358
 30
0.0
 40
1.418722274885092
100
AcDbArc
 50
61.92296652968236
 51
72.04895258545537
1001
AcDbBlockRepETag
1070
     1
1071
      709
1005
2204
  0
ARC
  5
2205
330
8AB
100
AcDbEntity
  8
Layer_0
  6
Continuous
100
AcDbCircle
 10
247.4732242396168
 20
23.08569651644222
 30
0.0
 40
1.301146313134756
100
AcDbArc
 50
33.83096086917654
 51
61.88270648653339
1001
AcDbBlockRepETag
1070
     1
1071
      710
1005
2205
  0
ARC
  5
2206
330
8AB
100
AcDbEntity
  8
Layer_0
  6
Continuous
100
AcDbCircle
 10
247.387632627684
 20
23.0273498972258
 30
0.0
 40
1.404730273662166
100
AcDbArc
 50
22.34236851969302
 51
33.86419972740576
1001
AcDbBlockRepETag
1070
     1
1071
      711
1005
2206
  0
ARC
  5
2207
330
8AB
100
AcDbEntity
  8
Layer_0
  6
Continuous
100
AcDbCircle
 10
247.247307931176
 20
22.96987701515467
 30
0.0
 40
1.556368401526523
100
AcDbArc
 50
5.532096219894013
 51
22.33556779178085
1001
AcDbBlockRepETag
1070
     1
1071
      712
1005
2207
  0
ARC
  5
2208
330
8AB
100
AcDbEntity
  8
Layer_0
  6
Continuous
100
AcDbCircle
 10
247.2306451541292
 20
22.96362090504226
 30
0.0
 40
1.573563463167109
100
AcDbArc
 50
351.1319269182277
 51
5.700340232080407
1001
AcDbBlockRepETag
1070
     1
1071
      713
1005
2208
  0
ARC
  5
2209
330
8AB
100
AcDbEntity
  8
Layer_0
  6
Continuous
100
AcDbCircle
 10
247.3678467105494
 20
22.9431582679108
 30
0.0
 40
1.434847811309403
100
AcDbArc
 50
339.7936604357464
 51
351.0946729205631
1001
AcDbBlockRepETag
1070
     1
1071
      714
1005
2209
  0
ARC
  5
220A
330
8AB
100
AcDbEntity
  8
Layer_0
  6
Continuous
100
AcDbCircle
 10
247.4617381304669
 20
22.91236578226312
 30
0.0
 40
1.336103840188563
100
AcDbArc
 50
313.0415119186031
 51
339.6421585154412
1001
AcDbBlockRepETag
1070
     1
1071
      715
1005
220A
  0
ARC
  5
220B
330
8AB
100
AcDbEntity
  8
Layer_0
  6
Continuous
100
AcDbCircle
 10
247.4042004751927
 20
22.97168392759851
 30
0.0
 40
1.418728991790731
100
AcDbArc
 50
296.5999395913854
 51
313.1047406259851
1001
AcDbBlockRepETag
1070
     1
1071
      716
1005
220B
  0
ARC
  5
220C
330
8AB
100
AcDbEntity
  8
Layer_0
  6
Continuous
100
AcDbCircle
 10
247.3555706272854
 20
23.06386736274202
 30
0.0
 40
1.522931253674253
100
AcDbArc
 50
287.4894181851972
 51
296.6829610613853
1001
AcDbBlockRepETag
1070
     1
1071
      717
1005
220C
  0
ARC
  5
220D
330
8AB
100
AcDbEntity
  8
Layer_0
  6
Continuous
100
AcDbCircle
 10
247.2883561852218
 20
23.27512844421164
 30
0.0
 40
1.74462629958709
100
AcDbArc
 50
281.2796566651382
 51
287.5096833841388
1001
AcDbBlockRepETag
1070
     1
1071
      718
1005
220D
  0
ARC
  5
220E
330
8AB
100
AcDbEntity
  8
Layer_0
  6
Continuous
100
AcDbCircle
 10
247.2415298893029
 20
23.50847209773633
 30
0.0
 40
1.982621874147125
100
AcDbArc
 50
273.7909316464815
 51
281.2877560498555
1001
AcDbBlockRepETag
1070
     1
1071
      719
1005
220E
  0
ARC
  5
220F
330
8AB
100
AcDbEntity
  8
Layer_0
  6
Continuous
100
AcDbCircle
 10
247.2290406471529
 20
23.66174103781167
 30
0.0
 40
2.136382460620867
100
AcDbArc
 50
259.7783585614767
 51
273.8533768904413
1001
AcDbBlockRepETag
1070
     1
1071
      720
1005
220F
  0
ARC
  5
2210
330
8AB
100
AcDbEntity
  8
Layer_0
  6
Continuous
100
AcDbCircle
 10
247.1904747231717
 20
23.44584630254905
 30
0.0
 40
1.917070526811943
100
AcDbArc
 50
252.1152360717929
 51
259.7676563476973
1001
AcDbBlockRepETag
1070
     1
1071
      721
1005
2210
  0
ARC
  5
2211
330
8AB
100
AcDbEntity
  8
Layer_0
  6
Continuous
100
AcDbCircle
 10
247.1568301426432
 20
23.32825708537882
 30
0.0
 40
1.794835976147766
100
AcDbArc
 50
231.2147684927011
 51
251.9845665353192
1001
AcDbBlockRepETag
1070
     1
1071
      722
1005
2211
  0
ARC
  5
2212
330
8AB
100
AcDbEntity
  8
Layer_0
  6
Continuous
100
AcDbCircle
 10
247.0306403935678
 20
23.16865141206198
 30
0.0
 40
1.591378632432877
100
AcDbArc
 50
223.5828829833021
 51
231.1567080078092
1001
AcDbBlockRepETag
1070
     1
1071
      723
1005
2212
  0
ARC
  5
2213
330
8AB
100
AcDbEntity
  8
Layer_0
  6
Continuous
100
AcDbCircle
 10
246.8482595559014
 20
22.99377319668678
 30
0.0
 40
1.338704730189857
100
AcDbArc
 50
217.3165979285773
 51
223.5424812420994
1001
AcDbBlockRepETag
1070
     1
1071
      724
1005
2213
  0
ARC
  5
2214
330
8AB
100
AcDbEntity
  8
Layer_0
  6
Continuous
100
AcDbCircle
 10
246.6402839371196
 20
22.83531927392925
 30
0.0
 40
1.077244409926681
100
AcDbArc
 50
210.2254228446611
 51
217.3198243307816
1001
AcDbBlockRepETag
1070
     1
1071
      725
1005
2214
  0
ARC
  5
2215
330
8AB
100
AcDbEntity
  8
Layer_0
  6
Continuous
100
AcDbCircle
 10
246.5573393437682
 20
22.78455973233292
 30
0.0
 40
0.9800257418716103
100
AcDbArc
 50
187.1705015941984
 51
210.1023996698679
1001
AcDbBlockRepETag
1070
     1
1071
      726
1005
2215
  0
ARC
  5
2216
330
8AB
100
AcDbEntity
  8
Layer_0
  6
Continuous
100
AcDbCircle
 10
246.8110952426682
 20
22.81835591538401
 30
0.0
 40
1.236016957898214
100
AcDbArc
 50
180.2616307503654
 51
187.2566034788537
1001
AcDbBlockRepETag
1070
     1
1071
      727
1005
2216
  0
ARC
  5
2217
330
8AB
100
AcDbEntity
  8
Layer_0
  6
Continuous
100
AcDbCircle
 10
265.4064222724139
 20
22.91011941399551
 30
0.0
 40
19.83157032309353
100
AcDbArc
 50
179.8349501568626
 51
180.2814231275571
1001
AcDbBlockRepETag
1070
     1
1071
      728
1005
2217
  0
LINE
  5
2218
330
8AB
100
AcDbEntity
  8
Layer_0
  6
Continuous
100
AcDbLine
 10
246.66473778819
 20
22.97090481321935
 30
0.0
 11
246.6649108989916
 21
22.87513894841799
 31
0.0
1001
AcDbBlockRepETag
1070
     1
1071
      729
1005
2218
  0
ARC
  5
2219
330
8AB
100
AcDbEntity
  8
Layer_0
  6
Continuous
100
AcDbCircle
 10
247.6186646285036
 20
22.88379668841685
 30
0.0
 40
0.9537930242038685
100
AcDbArc
 50
180.5200905875346
 51
188.6884056930341
1001
AcDbBlockRepETag
1070
     1
1071
      730
1005
2219
  0
ARC
  5
221A
330
8AB
100
AcDbEntity
  8
Layer_0
  6
Continuous
100
AcDbCircle
 10
247.3369839349345
 20
22.84306284777119
 30
0.0
 40
0.6691953777688299
100
AcDbArc
 50
188.88400322045
 51
200.1417989678493
1001
AcDbBlockRepETag
1070
     1
1071
      731
1005
221A
  0
ARC
  5
221B
330
8AB
100
AcDbEntity
  8
Layer_0
  6
Continuous
100
AcDbCircle
 10
247.2816900188129
 20
22.82952343689566
 30
0.0
 40
0.6126535205328062
100
AcDbArc
 50
200.7336815388734
 51
232.3710740670562
1001
AcDbBlockRepETag
1070
     1
1071
      732
1005
221B
  0
ARC
  5
221C
330
8AB
100
AcDbEntity
  8
Layer_0
  6
Continuous
100
AcDbCircle
 10
247.2072588942617
 20
22.734233549814
 30
0.0
 40
0.4917427371648037
100
AcDbArc
 50
232.4607100291268
 51
297.2141631514867
1001
AcDbBlockRepETag
1070
     1
1071
      733
1005
221C
  0
ARC
  5
221D
330
8AB
100
AcDbEntity
  8
Layer_0
  6
Continuous
100
AcDbCircle
 10
247.2199389880692
 20
22.70155061000411
 30
0.0
 40
0.4568935971205892
100
AcDbArc
 50
297.6744016429185
 51
319.5486294378953
1001
AcDbBlockRepETag
1070
     1
1071
      734
1005
221D
  0
ARC
  5
221E
330
8AB
100
AcDbEntity
  8
Layer_0
  6
Continuous
100
AcDbCircle
 10
247.1591515932952
 20
22.75437873766338
 30
0.0
 40
0.5374257410036061
100
AcDbArc
 50
319.467506620989
 51
332.1602433870558
1001
AcDbBlockRepETag
1070
     1
1071
      735
1005
221E
  0
ARC
  5
221F
330
8AB
100
AcDbEntity
  8
Layer_0
  6
Continuous
100
AcDbCircle
 10
247.0446924896375
 20
22.81639566122487
 30
0.0
 40
0.6676003842572471
100
AcDbArc
 50
332.0412517099014
 51
341.0522955025567
1001
AcDbBlockRepETag
1070
     1
1071
      736
1005
221F
  0
ARC
  5
2220
330
8AB
100
AcDbEntity
  8
Layer_0
  6
Continuous
100
AcDbCircle
 10
246.8970555700341
 20
22.86860228975717
 30
0.0
 40
0.8241906582306215
100
AcDbArc
 50
340.952233066021
 51
346.9348208232776
1001
AcDbBlockRepETag
1070
     1
1071
      737
1005
2220
  0
ARC
  5
2221
330
8AB
100
AcDbEntity
  8
Layer_0
  6
Continuous
100
AcDbCircle
 10
246.6258393510745
 20
22.93105642976286
 30
0.0
 40
1.102504490799063
100
AcDbArc
 50
346.959429973975
 51
353.415880201837
1001
AcDbBlockRepETag
1070
     1
1071
      738
1005
2221
  0
ARC
  5
2222
330
8AB
100
AcDbEntity
  8
Layer_0
  6
Continuous
100
AcDbCircle
 10
246.3294235413134
 20
22.96720130796722
 30
0.0
 40
1.40111106647141
100
AcDbArc
 50
353.3374099461257
 51
8.060359901865181
1001
AcDbBlockRepETag
1070
     1
1071
      739
1005
2222
  0
ARC
  5
2223
330
8AB
100
AcDbEntity
  8
Layer_0
  6
Continuous
100
AcDbCircle
 10
246.6924152801018
 20
23.01671789368731
 30
0.0
 40
1.034764017785121
100
AcDbArc
 50
8.163899815758592
 51
14.92231978239156
1001
AcDbBlockRepETag
1070
     1
1071
      740
1005
2223
  0
ARC
  5
2224
330
8AB
100
AcDbEntity
  8
Layer_0
  6
Continuous
100
AcDbCircle
 10
246.957188965146
 20
23.08567138685054
 30
0.0
 40
0.7611650277289743
100
AcDbArc
 50
15.0392632005833
 51
23.37770641101888
1001
AcDbBlockRepETag
1070
     1
1071
      741
1005
2224
  0
ARC
  5
2225
330
8AB
100
AcDbEntity
  8
Layer_0
  6
Continuous
100
AcDbCircle
 10
247.1024265040775
 20
23.14836475772779
 30
0.0
 40
0.6029740262207829
100
AcDbArc
 50
23.38550767112427
 51
35.22589179778407
1001
AcDbBlockRepETag
1070
     1
1071
      742
1005
2225
  0
ARC
  5
2226
330
8AB
100
AcDbEntity
  8
Layer_0
  6
Continuous
100
AcDbCircle
 10
247.1967672052892
 20
23.21436034039527
 30
0.0
 40
0.4878424949324507
100
AcDbArc
 50
35.28521478678495
 51
53.75603884728777
1001
AcDbBlockRepETag
1070
     1
1071
      743
1005
2226
  0
ARC
  5
2227
330
8AB
100
AcDbEntity
  8
Layer_0
  6
Continuous
100
AcDbCircle
 10
247.213487747744
 20
23.23139797758722
 30
0.0
 40
0.4642284659435544
100
AcDbArc
 50
54.17717685884483
 51
83.01952571193004
1001
AcDbBlockRepETag
1070
     1
1071
      744
1005
2227
  0
ARC
  5
2228
330
8AB
100
AcDbEntity
  8
Layer_0
  6
Continuous
100
AcDbCircle
 10
247.2072695038336
 20
23.21033809949426
 30
0.0
 40
0.4859013809349186
100
AcDbArc
 50
82.59352232688923
 51
127.8552643208382
1001
AcDbBlockRepETag
1070
     1
1071
      745
1005
2228
  0
ARC
  5
2229
330
8AB
100
AcDbEntity
  8
Layer_0
  6
Continuous
100
AcDbCircle
 10
247.2876617099707
 20
23.1041572352293
 30
0.0
 40
0.6190744033243656
100
AcDbArc
 50
127.6993026702643
 51
171.1767988945913
1001
AcDbBlockRepETag
1070
     1
1071
      746
1005
2229
  0
ARC
  5
222A
330
8AB
100
AcDbEntity
  8
Layer_0
  6
Continuous
100
AcDbCircle
 10
247.5715531367352
 20
23.05747073738802
 30
0.0
 40
0.9067711096176083
100
AcDbArc
 50
171.0132049168527
 51
180.2330212340836
1001
AcDbBlockRepETag
1070
     1
1071
      747
1005
222A
  0
ARC
  5
222B
330
8AB
100
AcDbEntity
  8
Layer_0
  6
Continuous
100
AcDbCircle
 10
263.9633979515483
 20
23.00154489543638
 30
0.0
 40
17.29868729880962
100
AcDbArc
 50
179.8269797664061
 51
180.1014844816173
1001
AcDbBlockRepETag
1070
     1
1071
      748
1005
222B
  0
LINE
  5
222C
330
8AB
100
AcDbEntity
  8
Layer_0
  6
Continuous
100
AcDbLine
 10
249.1097160411413
 20
24.36683591052417
 30
0.0
 11
250.1302457486969
 21
24.36683591052417
 31
0.0
1001
AcDbBlockRepETag
1070
     1
1071
      749
1005
222C
  0
LINE
  5
222D
330
8AB
100
AcDbEntity
  8
Layer_0
  6
Continuous
100
AcDbLine
 10
250.1302457486969
 20
24.36683591052417
 30
0.0
 11
250.1302457486969
 21
23.90101050696864
 31
0.0
1001
AcDbBlockRepETag
1070
     1
1071
      750
1005
222D
  0
LINE
  5
222E
330
8AB
100
AcDbEntity
  8
Layer_0
  6
Continuous
100
AcDbLine
 10
250.1302457486969
 20
23.90101050696864
 30
0.0
 11
250.1805867086486
 21
24.00287825831128
 31
0.0
1001
AcDbBlockRepETag
1070
     1
1071
      751
1005
222E
  0
ARC
  5
222F
330
8AB
100
AcDbEntity
  8
Layer_0
  6
Continuous
100
AcDbCircle
 10
251.0789056864425
 20
23.5426512556504
 30
0.0
 40
1.00934923581627
100
AcDbArc
 50
140.5785784128452
 51
152.8730175524921
1001
AcDbBlockRepETag
1070
     1
1071
      752
1005
222F
  0
ARC
  5
2230
330
8AB
100
AcDbEntity
  8
Layer_0
  6
Continuous
100
AcDbCircle
 10
250.804122395448
 20
23.75973852103606
 30
0.0
 40
0.659260570366233
100
AcDbArc
 50
96.56658392895188
 51
139.9881397754909
1001
AcDbBlockRepETag
1070
     1
1071
      753
1005
2230
  0
ARC
  5
2231
330
8AB
100
AcDbEntity
  8
Layer_0
  6
Continuous
100
AcDbCircle
 10
250.8462281356882
 20
23.46282757451558
 30
0.0
 40
0.9590711253297271
100
AcDbArc
 50
58.56727345232155
 51
97.03707488780224
1001
AcDbBlockRepETag
1070
     1
1071
      754
1005
2231
  0
LINE
  5
2232
330
8AB
100
AcDbEntity
  8
Layer_0
  6
Continuous
100
AcDbLine
 10
251.3463809300301
 20
24.28115795141309
 30
0.0
 11
251.0096487486968
 21
23.50490400207979
 31
0.0
1001
AcDbBlockRepETag
1070
     1
1071
      755
1005
2232
  0
LINE
  5
2233
330
8AB
100
AcDbEntity
  8
Layer_0
  6
Continuous
100
AcDbLine
 10
251.0096487486968
 20
23.50490400207979
 30
0.0
 11
250.9364947606049
 21
23.53463597825463
 31
0.0
1001
AcDbBlockRepETag
1070
     1
1071
      756
1005
2233
  0
ARC
  5
2234
330
8AB
100
AcDbEntity
  8
Layer_0
  6
Continuous
100
AcDbCircle
 10
250.6914111180151
 20
22.884218519829
 30
0.0
 40
0.6950603298203541
100
AcDbArc
 50
69.35310149525992
 51
87.10987563782875
1001
AcDbBlockRepETag
1070
     1
1071
      757
1005
2234
  0
ARC
  5
2235
330
8AB
100
AcDbEntity
  8
Layer_0
  6
Continuous
100
AcDbCircle
 10
250.7083261608004
 20
23.20464658480307
 30
0.0
 40
0.3741876856823305
100
AcDbArc
 50
87.2227697626568
 51
134.6883834821415
1001
AcDbBlockRepETag
1070
     1
1071
      758
1005
2235
  0
ARC
  5
2236
330
8AB
100
AcDbEntity
  8
Layer_0
  6
Continuous
100
AcDbCircle
 10
250.8649826598193
 20
23.04106984279064
 30
0.0
 40
0.6006612079081341
100
AcDbArc
 50
134.3390955960168
 51
149.2652415429872
1001
AcDbBlockRepETag
1070
     1
1071
      759
1005
2236
  0
ARC
  5
2237
330
8AB
100
AcDbEntity
  8
Layer_0
  6
Continuous
100
AcDbCircle
 10
251.0799440699527
 20
22.90907109995725
 30
0.0
 40
0.8528971130687985
100
AcDbArc
 50
149.0234422918462
 51
166.8517107270755
1001
AcDbBlockRepETag
1070
     1
1071
      760
1005
2237
  0
ARC
  5
2238
330
8AB
100
AcDbEntity
  8
Layer_0
  6
Continuous
100
AcDbCircle
 10
251.5981939423552
 20
22.78408400591751
 30
0.0
 40
1.385997206434459
100
AcDbArc
 50
166.6936664507381
 51
174.6140358211303
1001
AcDbBlockRepETag
1070
     1
1071
      761
1005
2238
  0
ARC
  5
2239
330
8AB
100
AcDbEntity
  8
Layer_0
  6
Continuous
100
AcDbCircle
 10
253.2021807833611
 20
22.62920099008942
 30
0.0
 40
2.997442645096247
100
AcDbArc
 50
174.5444212799492
 51
181.0330892692329
1001
AcDbBlockRepETag
1070
     1
1071
      762
1005
2239
  0
LINE
  5
223A
330
8AB
100
AcDbEntity
  8
Layer_0
  6
Continuous
100
AcDbLine
 10
250.2052253744746
 20
22.57515760207581
 30
0.0
 11
250.2052253744746
 21
22.47768712296863
 31
0.0
1001
AcDbBlockRepETag
1070
     1
1071
      763
1005
223A
  0
LINE
  5
223B
330
8AB
100
AcDbEntity
  8
Layer_0
  6
Continuous
100
AcDbLine
 10
250.2052253744746
 20
22.47768712296863
 30
0.0
 11
250.2052253744746
 21
21.52535857719089
 31
0.0
1001
AcDbBlockRepETag
1070
     1
1071
      764
1005
223B
  0
LINE
  5
223C
330
8AB
100
AcDbEntity
  8
Layer_0
  6
Continuous
100
AcDbLine
 10
250.2052253744746
 20
21.52535857719089
 30
0.0
 11
249.1097160411413
 21
21.52535857719089
 31
0.0
1001
AcDbBlockRepETag
1070
     1
1071
      765
1005
223C
  0
LINE
  5
223D
330
8AB
100
AcDbEntity
  8
Layer_0
  6
Continuous
100
AcDbLine
 10
249.1097160411413
 20
21.52535857719089
 30
0.0
 11
249.1097160411413
 21
24.36683591052417
 31
0.0
1001
AcDbBlockRepETag
1070
     1
1071
      766
1005
223D
  0
LINE
  5
223E
330
8AB
100
AcDbEntity
  8
Layer_0
  6
Continuous
100
AcDbLine
 10
251.6518883538753
 20
20.49662808608559
 30
0.0
 11
251.6518883538753
 21
24.41649741941898
 31
0.0
1001
AcDbBlockRepETag
1070
     1
1071
      767
1005
223E
  0
LINE
  5
223F
330
8AB
100
AcDbEntity
  8
Layer_0
  6
Continuous
100
AcDbLine
 10
251.6518883538753
 20
24.41649741941898
 30
0.0
 11
252.6726862329864
 21
24.41649741941898
 31
0.0
1001
AcDbBlockRepETag
1070
     1
1071
      768
1005
223F
  0
LINE
  5
2240
330
8AB
100
AcDbEntity
  8
Layer_0
  6
Continuous
100
AcDbLine
 10
252.6726862329864
 20
24.41649741941898
 30
0.0
 11
252.6726862329864
 21
23.99631823808567
 31
0.0
1001
AcDbBlockRepETag
1070
     1
1071
      769
1005
2240
  0
LINE
  5
2241
330
8AB
100
AcDbEntity
  8
Layer_0
  6
Continuous
100
AcDbLine
 10
252.6726862329864
 20
23.99631823808567
 30
0.0
 11
252.7330410678262
 21
24.07163149970938
 31
0.0
1001
AcDbBlockRepETag
1070
     1
1071
      770
1005
2241
  0
ARC
  5
2242
330
8AB
100
AcDbEntity
  8
Layer_0
  6
Continuous
100
AcDbCircle
 10
253.6700732010237
 20
23.30725400195433
 30
0.0
 40
1.209256870031727
100
AcDbArc
 50
130.3675484473373
 51
140.7943918230476
1001
AcDbBlockRepETag
1070
     1
1071
      771
1005
2242
  0
ARC
  5
2243
330
8AB
100
AcDbEntity
  8
Layer_0
  6
Continuous
100
AcDbCircle
 10
253.4779072575722
 20
23.52737142732564
 30
0.0
 40
0.9170926360915016
100
AcDbArc
 50
107.7277698527467
 51
130.1273467121462
1001
AcDbBlockRepETag
1070
     1
1071
      772
1005
2243
  0
ARC
  5
2244
330
8AB
100
AcDbEntity
  8
Layer_0
  6
Continuous
100
AcDbCircle
 10
253.56294478339
 20
23.27719234428741
 30
0.0
 40
1.181295037388265
100
AcDbArc
 50
100.9300900721265
 51
107.9616115932513
1001
AcDbBlockRepETag
1070
     1
1071
      773
1005
2244
  0
ARC
  5
2245
330
8AB
100
AcDbEntity
  8
Layer_0
  6
Continuous
100
AcDbCircle
 10
253.605616811531
 20
23.08211248727115
 30
0.0
 40
1.380935818126509
100
AcDbArc
 50
89.63564703558407
 51
101.1337517192316
1001
AcDbBlockRepETag
1070
     1
1071
      774
1005
2245
  0
ARC
  5
2246
330
8AB
100
AcDbEntity
  8
Layer_0
  6
Continuous
100
AcDbCircle
 10
253.6055797622814
 20
23.30661601141571
 30
0.0
 40
1.156437996462323
100
AcDbArc
 50
80.02069998071824
 51
89.56307875392218
1001
AcDbBlockRepETag
1070
     1
1071
      775
1005
2246
  0
ARC
  5
2247
330
8AB
100
AcDbEntity
  8
Layer_0
  6
Continuous
100
AcDbCircle
 10
253.6344447536202
 20
23.47912269564221
 30
0.0
 40
0.9815402767702801
100
AcDbArc
 50
70.54344295320222
 51
79.93513536566297
1001
AcDbBlockRepETag
1070
     1
1071
      776
1005
2247
  0
ARC
  5
2248
330
8AB
100
AcDbEntity
  8
Layer_0
  6
Continuous
100
AcDbCircle
 10
253.6710846068581
 20
23.58439644793861
 30
0.0
 40
0.8700739649413511
100
AcDbArc
 50
53.7619741953116
 51
70.50930952236235
1001
AcDbBlockRepETag
1070
     1
1071
      777
1005
2248
  0
ARC
  5
2249
330
8AB
100
AcDbEntity
  8
Layer_0
  6
Continuous
100
AcDbCircle
 10
253.5898039495791
 20
23.47361530175055
 30
0.0
 40
1.0074748500636
100
AcDbArc
 50
46.04658227582489
 51
53.75793056554799
1001
AcDbBlockRepETag
1070
     1
1071
      778
1005
2249
  0
ARC
  5
224A
330
8AB
100
AcDbEntity
  8
Layer_0
  6
Continuous
100
AcDbCircle
 10
253.4795475511277
 20
23.35836672616278
 30
0.0
 40
1.166968984816889
100
AcDbArc
 50
39.09300125509327
 51
46.07687087050828
1001
AcDbBlockRepETag
1070
     1
1071
      779
1005
224A
  0
ARC
  5
224B
330
8AB
100
AcDbEntity
  8
Layer_0
  6
Continuous
100
AcDbCircle
 10
253.3324364298207
 20
23.23917956959633
 30
0.0
 40
1.356302556724248
100
AcDbArc
 50
30.61564702119575
 51
39.08195301701967
1001
AcDbBlockRepETag
1070
     1
1071
      780
1005
224B
  0
ARC
  5
224C
330
8AB
100
AcDbEntity
  8
Layer_0
  6
Continuous
100
AcDbCircle
 10
253.1530057132351
 20
23.13126569995461
 30
0.0
 40
1.565679869529008
100
AcDbArc
 50
22.88629506522332
 51
30.67021568956008
1001
AcDbBlockRepETag
1070
     1
1071
      781
1005
224C
  0
ARC
  5
224D
330
8AB
100
AcDbEntity
  8
Layer_0
  6
Continuous
100
AcDbCircle
 10
252.9683643263692
 20
23.05281895993846
 30
0.0
 40
1.766294281412101
100
AcDbArc
 50
13.72945272847627
 51
22.90133326654046
1001
AcDbBlockRepETag
1070
     1
1071
      782
1005
224D
  0
ARC
  5
224E
330
8AB
100
AcDbEntity
  8
Layer_0
  6
Continuous
100
AcDbCircle
 10
252.6637473872183
 20
22.97654447792967
 30
0.0
 40
2.080311050341863
100
AcDbArc
 50
7.229658660248879
 51
13.77897521605842
1001
AcDbBlockRepETag
1070
     1
1071
      783
1005
224E
  0
ARC
  5
224F
330
8AB
100
AcDbEntity
  8
Layer_0
  6
Continuous
100
AcDbCircle
 10
252.4759656337202
 20
22.94981085368533
 30
0.0
 40
2.269966060132922
100
AcDbArc
 50
355.0691931237637
 51
7.302588346073049
1001
AcDbBlockRepETag
1070
     1
1071
      784
1005
224F
  0
ARC
  5
2250
330
8AB
100
AcDbEntity
  8
Layer_0
  6
Continuous
100
AcDbCircle
 10
252.7713124376175
 20
22.92499859439965
 30
0.0
 40
1.973579701581296
100
AcDbArc
 50
348.2193250842619
 51
355.049875659349
1001
AcDbBlockRepETag
1070
     1
1071
      785
1005
2250
  0
ARC
  5
2251
330
8AB
100
AcDbEntity
  8
Layer_0
  6
Continuous
100
AcDbCircle
 10
253.1121717576111
 20
22.8552609185034
 30
0.0
 40
1.625662622070249
100
AcDbArc
 50
342.2147512228463
 51
348.1726929648583
1001
AcDbBlockRepETag
1070
     1
1071
      786
1005
2251
  0
ARC
  5
2252
330
8AB
100
AcDbEntity
  8
Layer_0
  6
Continuous
100
AcDbCircle
 10
253.3345554771403
 20
22.78466637795383
 30
0.0
 40
1.392344116244108
100
AcDbArc
 50
329.2217419173184
 51
342.1856802923866
1001
AcDbBlockRepETag
1070
     1
1071
      787
1005
2252
  0
ARC
  5
2253
330
8AB
100
AcDbEntity
  8
Layer_0
  6
Continuous
100
AcDbCircle
 10
253.4495385968498
 20
22.71742564825558
 30
0.0
 40
1.259148130097904
100
AcDbArc
 50
316.0698423627636
 51
329.1731143898183
1001
AcDbBlockRepETag
1070
     1
1071
      788
1005
2253
  0
ARC
  5
2254
330
8AB
100
AcDbEntity
  8
Layer_0
  6
Continuous
100
AcDbCircle
 10
253.5502291448444
 20
22.62205258711833
 30
0.0
 40
1.120464797647014
100
AcDbArc
 50
304.6931208219879
 51
316.0099705331277
1001
AcDbBlockRepETag
1070
     1
1071
      789
1005
2254
  0
ARC
  5
2255
330
8AB
100
AcDbEntity
  8
Layer_0
  6
Continuous
100
AcDbCircle
 10
253.6377915795348
 20
22.49681593978106
 30
0.0
 40
0.9676550800905157
100
AcDbArc
 50
281.2087185635974
 51
304.6509257893835
1001
AcDbBlockRepETag
1070
     1
1071
      790
1005
2255
  0
ARC
  5
2256
330
8AB
100
AcDbEntity
  8
Layer_0
  6
Continuous
100
AcDbCircle
 10
253.6013899443801
 20
22.67025621162747
 30
0.0
 40
1.144864697596539
100
AcDbArc
 50
270.5733530528958
 51
281.3084774860079
1001
AcDbBlockRepETag
1070
     1
1071
      791
1005
2256
  0
ARC
  5
2257
330
8AB
100
AcDbEntity
  8
Layer_0
  6
Continuous
100
AcDbCircle
 10
253.5968602528732
 20
22.9410784036479
 30
0.0
 40
1.415719826457071
100
AcDbArc
 50
261.5054676900755
 51
270.6469870439133
1001
AcDbBlockRepETag
1070
     1
1071
      792
1005
2257
  0
ARC
  5
2258
330
8AB
100
AcDbEntity
  8
Layer_0
  6
Continuous
100
AcDbCircle
 10
253.5867758799645
 20
22.93464724897228
 30
0.0
 40
1.407898527054512
100
AcDbArc
 50
253.159037432551
 51
261.8727011206211
1001
AcDbBlockRepETag
1070
     1
1071
      793
1005
2258
  0
ARC
  5
2259
330
8AB
100
AcDbEntity
  8
Layer_0
  6
Continuous
100
AcDbCircle
 10
253.4810785568438
 20
22.58360416892321
 30
0.0
 40
1.041288685486136
100
AcDbArc
 50
239.8058055640022
 51
253.1294012662983
1001
AcDbBlockRepETag
1070
     1
1071
      794
1005
2259
  0
ARC
  5
225A
330
8AB
100
AcDbEntity
  8
Layer_0
  6
Continuous
100
AcDbCircle
 10
253.3924264266584
 20
22.415763220048
 30
0.0
 40
0.8516690147160524
100
AcDbArc
 50
221.3514919661928
 51
239.2818409554798
1001
AcDbBlockRepETag
1070
     1
1071
      795
1005
225A
  0
LINE
  5
225B
330
8AB
100
AcDbEntity
  8
Layer_0
  6
Continuous
100
AcDbLine
 10
252.7531034649864
 20
21.85308546030785
 30
0.0
 11
252.7531034649864
 21
20.49662808608559
 31
0.0
1001
AcDbBlockRepETag
1070
     1
1071
      796
1005
225B
  0
LINE
  5
225C
330
8AB
100
AcDbEntity
  8
Layer_0
  6
Continuous
100
AcDbLine
 10
252.7531034649864
 20
20.49662808608559
 30
0.0
 11
251.6518883538753
 21
20.49662808608559
 31
0.0
1001
AcDbBlockRepETag
1070
     1
1071
      797
1005
225C
  0
LINE
  5
225D
330
8AB
100
AcDbEntity
  8
Layer_0
  6
Continuous
100
AcDbLine
 10
252.745075435653
 20
22.98960221853008
 30
0.0
 11
252.7452334553856
 21
22.90481384045665
 31
0.0
1001
AcDbBlockRepETag
1070
     1
1071
      798
1005
225D
  0
ARC
  5
225E
330
8AB
100
AcDbEntity
  8
Layer_0
  6
Continuous
100
AcDbCircle
 10
253.5670806114514
 20
22.91255835602862
 30
0.0
 40
0.8218836447181578
100
AcDbArc
 50
180.5398995663987
 51
188.9432178444097
1001
AcDbBlockRepETag
1070
     1
1071
      799
1005
225E
  0
ARC
  5
225F
330
8AB
100
AcDbEntity
  8
Layer_0
  6
Continuous
100
AcDbCircle
 10
253.3309832915313
 20
22.87751203783249
 30
0.0
 40
0.5832121592560085
100
AcDbArc
 50
189.1477952673578
 51
200.6436014752422
1001
AcDbBlockRepETag
1070
     1
1071
      800
1005
225F
  0
ARC
  5
2260
330
8AB
100
AcDbEntity
  8
Layer_0
  6
Continuous
100
AcDbCircle
 10
253.304486819567
 20
22.87481200174533
 30
0.0
 40
0.5575067295392771
100
AcDbArc
 50
201.3439820553181
 51
234.480711663317
1001
AcDbBlockRepETag
1070
     1
1071
      801
1005
2260
  0
ARC
  5
2261
330
8AB
100
AcDbEntity
  8
Layer_0
  6
Continuous
100
AcDbCircle
 10
253.2281009053221
 20
22.76689969767607
 30
0.0
 40
0.425296611432071
100
AcDbArc
 50
234.4103147699089
 51
289.561008505804
1001
AcDbBlockRepETag
1070
     1
1071
      802
1005
2261
  0
ARC
  5
2262
330
8AB
100
AcDbEntity
  8
Layer_0
  6
Continuous
100
AcDbCircle
 10
253.2412264628992
 20
22.72220202828998
 30
0.0
 40
0.3787929758373425
100
AcDbArc
 50
289.9538642423603
 51
320.9196998933839
1001
AcDbBlockRepETag
1070
     1
1071
      803
1005
2262
  0
ARC
  5
2263
330
8AB
100
AcDbEntity
  8
Layer_0
  6
Continuous
100
AcDbCircle
 10
253.1757905234012
 20
22.77619371949413
 30
0.0
 40
0.4636258032768142
100
AcDbArc
 50
320.838091072347
 51
333.7570664350018
1001
AcDbBlockRepETag
1070
     1
1071
      804
1005
2263
  0
ARC
  5
2264
330
8AB
100
AcDbEntity
  8
Layer_0
  6
Continuous
100
AcDbCircle
 10
253.046980480417
 20
22.84155324630398
 30
0.0
 40
0.6080618764873983
100
AcDbArc
 50
333.6001062703906
 51
342.4626986882559
1001
AcDbBlockRepETag
1070
     1
1071
      805
1005
2264
  0
ARC
  5
2265
330
8AB
100
AcDbEntity
  8
Layer_0
  6
Continuous
100
AcDbCircle
 10
252.8772313201823
 20
22.89699583719936
 30
0.0
 40
0.7866294625410749
100
AcDbArc
 50
342.3377298266974
 51
348.0428157043374
1001
AcDbBlockRepETag
1070
     1
1071
      806
1005
2265
  0
ARC
  5
2266
330
8AB
100
AcDbEntity
  8
Layer_0
  6
Continuous
100
AcDbCircle
 10
252.5783669485353
 20
22.95995913167212
 30
0.0
 40
1.092054108753276
100
AcDbArc
 50
348.0596974657233
 51
354.0666344926591
1001
AcDbBlockRepETag
1070
     1
1071
      807
1005
2266
  0
ARC
  5
2267
330
8AB
100
AcDbEntity
  8
Layer_0
  6
Continuous
100
AcDbCircle
 10
252.2559346728637
 20
22.99564809085688
 30
0.0
 40
1.416449935682145
100
AcDbArc
 50
353.9789637601862
 51
7.521947188926358
1001
AcDbBlockRepETag
1070
     1
1071
      808
1005
2267
  0
ARC
  5
2268
330
8AB
100
AcDbEntity
  8
Layer_0
  6
Continuous
100
AcDbCircle
 10
252.6577167525365
 20
23.04670277822264
 30
0.0
 40
1.011443850952914
100
AcDbArc
 50
7.634127254104452
 51
14.03086913253387
1001
AcDbBlockRepETag
1070
     1
1071
      809
1005
2268
  0
ARC
  5
2269
330
8AB
100
AcDbEntity
  8
Layer_0
  6
Continuous
100
AcDbCircle
 10
252.9423251663899
 20
23.11630767356007
 30
0.0
 40
0.718452837561428
100
AcDbArc
 50
14.14838149833485
 51
22.23255525925989
1001
AcDbBlockRepETag
1070
     1
1071
      810
1005
2269
  0
ARC
  5
226A
330
8AB
100
AcDbEntity
  8
Layer_0
  6
Continuous
100
AcDbCircle
 10
253.0985188399267
 20
23.18012756129462
 30
0.0
 40
0.5497239395724254
100
AcDbArc
 50
22.23497903384933
 51
33.94595454700859
1001
AcDbBlockRepETag
1070
     1
1071
      811
1005
226A
  0
ARC
  5
226B
330
8AB
100
AcDbEntity
  8
Layer_0
  6
Continuous
100
AcDbCircle
 10
253.2005088529321
 20
23.24828094801023
 30
0.0
 40
0.4270592521694591
100
AcDbArc
 50
34.00158776967636
 51
52.66529034511222
1001
AcDbBlockRepETag
1070
     1
1071
      812
1005
226B
  0
ARC
  5
226C
330
8AB
100
AcDbEntity
  8
Layer_0
  6
Continuous
100
AcDbCircle
 10
253.2201562050135
 20
23.26694599697179
 30
0.0
 40
0.4003261373726938
100
AcDbArc
 50
53.28100717117528
 51
100.6339071561965
1001
AcDbBlockRepETag
1070
     1
1071
      813
1005
226C
  0
ARC
  5
226D
330
8AB
100
AcDbEntity
  8
Layer_0
  6
Continuous
100
AcDbCircle
 10
253.2198940594041
 20
23.25392266700827
 30
0.0
 40
0.4130860043277035
100
AcDbArc
 50
100.2648360037454
 51
126.1339154188998
1001
AcDbBlockRepETag
1070
     1
1071
      814
1005
226D
  0
ARC
  5
226E
330
8AB
100
AcDbEntity
  8
Layer_0
  6
Continuous
100
AcDbCircle
 10
253.2997470537127
 20
23.14542042792868
 30
0.0
 40
0.5478043744983154
100
AcDbArc
 50
126.1874185878101
 51
167.7322619132535
1001
AcDbBlockRepETag
1070
     1
1071
      815
1005
226E
  0
ARC
  5
226F
330
8AB
100
AcDbEntity
  8
Layer_0
  6
Continuous
100
AcDbCircle
 10
253.5535665163761
 20
23.08823489667201
 30
0.0
 40
0.8079811058540988
100
AcDbArc
 50
167.5941168311286
 51
178.700958010397
1001
AcDbBlockRepETag
1070
     1
1071
      816
1005
226F
  0
ARC
  5
2270
330
8AB
100
AcDbEntity
  8
Layer_0
  6
Continuous
100
AcDbCircle
 10
256.1293657757566
 20
23.02731261785413
 30
0.0
 40
3.384500432905364
100
AcDbArc
 50
178.6584384070554
 51
180.638407787599
1001
AcDbBlockRepETag
1070
     1
1071
      817
1005
2270
  0
LINE
  5
2271
330
8AB
100
AcDbEntity
  8
Layer_0
  6
Continuous
100
AcDbLine
 10
255.0514391176982
 20
22.96724740966385
 30
0.0
 11
255.0515853577337
 21
23.11115891240535
 31
0.0
1001
AcDbBlockRepETag
1070
     1
1071
      818
1005
2271
  0
ARC
  5
2272
330
8AB
100
AcDbEntity
  8
Layer_0
  6
Continuous
100
AcDbCircle
 10
256.2705701532656
 20
23.1026840871317
 30
0.0
 40
1.219014255208458
100
AcDbArc
 50
172.9400003992187
 51
179.6016653375392
1001
AcDbBlockRepETag
1070
     1
1071
      819
1005
2272
  0
ARC
  5
2273
330
8AB
100
AcDbEntity
  8
Layer_0
  6
Continuous
100
AcDbCircle
 10
256.0788509264593
 20
23.12219364063355
 30
0.0
 40
1.026359355984301
100
AcDbArc
 50
151.505510000468
 51
172.7054081293679
1001
AcDbBlockRepETag
1070
     1
1071
      820
1005
2273
  0
ARC
  5
2274
330
8AB
100
AcDbEntity
  8
Layer_0
  6
Continuous
100
AcDbCircle
 10
256.2138654572554
 20
23.05184620525801
 30
0.0
 40
1.178582418056825
100
AcDbArc
 50
145.2137102365826
 51
151.6312358853241
1001
AcDbBlockRepETag
1070
     1
1071
      821
1005
2274
  0
ARC
  5
2275
330
8AB
100
AcDbEntity
  8
Layer_0
  6
Continuous
100
AcDbCircle
 10
256.4114879143696
 20
22.9148362025445
 30
0.0
 40
1.419053487497617
100
AcDbArc
 50
137.331138684686
 51
145.2226987603807
1001
AcDbBlockRepETag
1070
     1
1071
      822
1005
2275
  0
ARC
  5
2276
330
8AB
100
AcDbEntity
  8
Layer_0
  6
Continuous
100
AcDbCircle
 10
256.5755704616758
 20
22.76102964154347
 30
0.0
 40
1.643945641061579
100
AcDbArc
 50
108.6718393714938
 51
137.2655201889723
1001
AcDbBlockRepETag
1070
     1
1071
      823
1005
2276
  0
ARC
  5
2277
330
8AB
100
AcDbEntity
  8
Layer_0
  6
Continuous
100
AcDbCircle
 10
256.6187046874781
 20
22.6386065240573
 30
0.0
 40
1.773735450592888
100
AcDbArc
 50
104.4371398018016
 51
108.7258014194255
1001
AcDbBlockRepETag
1070
     1
1071
      824
1005
2277
  0
ARC
  5
2278
330
8AB
100
AcDbEntity
  8
Layer_0
  6
Continuous
100
AcDbCircle
 10
256.6793601595265
 20
22.40032450669263
 30
0.0
 40
2.019615531885811
100
AcDbArc
 50
98.59619757283777
 51
104.4181933713803
1001
AcDbBlockRepETag
1070
     1
1071
      825
1005
2278
  0
ARC
  5
2279
330
8AB
100
AcDbEntity
  8
Layer_0
  6
Continuous
100
AcDbCircle
 10
256.7153045819904
 20
22.16727873740887
 30
0.0
 40
2.255416049394947
100
AcDbArc
 50
82.60827607383445
 51
98.61416675715688
1001
AcDbBlockRepETag
1070
     1
1071
      826
1005
2279
  0
ARC
  5
227A
330
8AB
100
AcDbEntity
  8
Layer_0
  6
Continuous
100
AcDbCircle
 10
256.7525787341137
 20
22.47478449815241
 30
0.0
 40
1.945672062302688
100
AcDbArc
 50
76.5286760460415
 51
82.53180170968986
1001
AcDbBlockRepETag
1070
     1
1071
      827
1005
227A
  0
ARC
  5
227B
330
8AB
100
AcDbEntity
  8
Layer_0
  6
Continuous
100
AcDbCircle
 10
256.8144159852074
 20
22.73804487666688
 30
0.0
 40
1.675249763229236
100
AcDbArc
 50
71.98715224693913
 51
76.48787768550815
1001
AcDbBlockRepETag
1070
     1
1071
      828
1005
227B
  0
ARC
  5
227C
330
8AB
100
AcDbEntity
  8
Layer_0
  6
Continuous
100
AcDbCircle
 10
256.8951975577524
 20
22.98152681630358
 30
0.0
 40
1.418722274885092
100
AcDbArc
 50
61.92296652968236
 51
72.04895258545537
1001
AcDbBlockRepETag
1070
     1
1071
      829
1005
227C
  0
ARC
  5
227D
330
8AB
100
AcDbEntity
  8
Layer_0
  6
Continuous
100
AcDbCircle
 10
256.9497291246807
 20
23.08569651644222
 30
0.0
 40
1.301146313134756
100
AcDbArc
 50
33.83096086917654
 51
61.88270648653339
1001
AcDbBlockRepETag
1070
     1
1071
      830
1005
227D
  0
ARC
  5
227E
330
8AB
100
AcDbEntity
  8
Layer_0
  6
Continuous
100
AcDbCircle
 10
256.8641375127481
 20
23.0273498972258
 30
0.0
 40
1.404730273662166
100
AcDbArc
 50
22.34236851969302
 51
33.86419972740576
1001
AcDbBlockRepETag
1070
     1
1071
      831
1005
227E
  0
ARC
  5
227F
330
8AB
100
AcDbEntity
  8
Layer_0
  6
Continuous
100
AcDbCircle
 10
256.72381281624
 20
22.96987701515467
 30
0.0
 40
1.556368401526523
100
AcDbArc
 50
5.532096219894013
 51
22.33556779178085
1001
AcDbBlockRepETag
1070
     1
1071
      832
1005
227F
  0
ARC
  5
2280
330
8AB
100
AcDbEntity
  8
Layer_0
  6
Continuous
100
AcDbCircle
 10
256.707150039193
 20
22.96362090504226
 30
0.0
 40
1.573563463167109
100
AcDbArc
 50
351.1319269182277
 51
5.700340232080407
1001
AcDbBlockRepETag
1070
     1
1071
      833
1005
2280
  0
ARC
  5
2281
330
8AB
100
AcDbEntity
  8
Layer_0
  6
Continuous
100
AcDbCircle
 10
256.8443515956132
 20
22.9431582679108
 30
0.0
 40
1.434847811309403
100
AcDbArc
 50
339.7936604357464
 51
351.0946729205631
1001
AcDbBlockRepETag
1070
     1
1071
      834
1005
2281
  0
ARC
  5
2282
330
8AB
100
AcDbEntity
  8
Layer_0
  6
Continuous
100
AcDbCircle
 10
256.9382430155307
 20
22.91236578226312
 30
0.0
 40
1.336103840188563
100
AcDbArc
 50
313.0415119186031
 51
339.6421585154412
1001
AcDbBlockRepETag
1070
     1
1071
      835
1005
2282
  0
ARC
  5
2283
330
8AB
100
AcDbEntity
  8
Layer_0
  6
Continuous
100
AcDbCircle
 10
256.8807053602565
 20
22.97168392759851
 30
0.0
 40
1.418728991790731
100
AcDbArc
 50
296.5999395913854
 51
313.1047406259851
1001
AcDbBlockRepETag
1070
     1
1071
      836
1005
2283
  0
ARC
  5
2284
330
8AB
100
AcDbEntity
  8
Layer_0
  6
Continuous
100
AcDbCircle
 10
256.8320755123493
 20
23.06386736274202
 30
0.0
 40
1.522931253674253
100
AcDbArc
 50
287.4894181851972
 51
296.6829610613853
1001
AcDbBlockRepETag
1070
     1
1071
      837
1005
2284
  0
ARC
  5
2285
330
8AB
100
AcDbEntity
  8
Layer_0
  6
Continuous
100
AcDbCircle
 10
256.7648610702856
 20
23.27512844421164
 30
0.0
 40
1.74462629958709
100
AcDbArc
 50
281.2796566651382
 51
287.5096833841388
1001
AcDbBlockRepETag
1070
     1
1071
      838
1005
2285
  0
ARC
  5
2286
330
8AB
100
AcDbEntity
  8
Layer_0
  6
Continuous
100
AcDbCircle
 10
256.7180347743667
 20
23.50847209773633
 30
0.0
 40
1.982621874147125
100
AcDbArc
 50
273.7909316464815
 51
281.2877560498555
1001
AcDbBlockRepETag
1070
     1
1071
      839
1005
2286
  0
ARC
  5
2287
330
8AB
100
AcDbEntity
  8
Layer_0
  6
Continuous
100
AcDbCircle
 10
256.7055455322167
 20
23.66174103781167
 30
0.0
 40
2.136382460620867
100
AcDbArc
 50
259.7783585614767
 51
273.8533768904413
1001
AcDbBlockRepETag
1070
     1
1071
      840
1005
2287
  0
ARC
  5
2288
330
8AB
100
AcDbEntity
  8
Layer_0
  6
Continuous
100
AcDbCircle
 10
256.6669796082355
 20
23.44584630254905
 30
0.0
 40
1.917070526811943
100
AcDbArc
 50
252.1152360717929
 51
259.7676563476973
1001
AcDbBlockRepETag
1070
     1
1071
      841
1005
2288
  0
ARC
  5
2289
330
8AB
100
AcDbEntity
  8
Layer_0
  6
Continuous
100
AcDbCircle
 10
256.633335027707
 20
23.32825708537882
 30
0.0
 40
1.794835976147766
100
AcDbArc
 50
231.2147684927011
 51
251.9845665353192
1001
AcDbBlockRepETag
1070
     1
1071
      842
1005
2289
  0
ARC
  5
228A
330
8AB
100
AcDbEntity
  8
Layer_0
  6
Continuous
100
AcDbCircle
 10
256.5071452786316
 20
23.16865141206198
 30
0.0
 40
1.591378632432877
100
AcDbArc
 50
223.5828829833021
 51
231.1567080078092
1001
AcDbBlockRepETag
1070
     1
1071
      843
1005
228A
  0
ARC
  5
228B
330
8AB
100
AcDbEntity
  8
Layer_0
  6
Continuous
100
AcDbCircle
 10
256.3247644409655
 20
22.99377319668678
 30
0.0
 40
1.338704730189857
100
AcDbArc
 50
217.3165979285773
 51
223.5424812420994
1001
AcDbBlockRepETag
1070
     1
1071
      844
1005
228B
  0
ARC
  5
228C
330
8AB
100
AcDbEntity
  8
Layer_0
  6
Continuous
100
AcDbCircle
 10
256.1167888221834
 20
22.83531927392925
 30
0.0
 40
1.077244409926681
100
AcDbArc
 50
210.2254228446611
 51
217.3198243307816
1001
AcDbBlockRepETag
1070
     1
1071
      845
1005
228C
  0
ARC
  5
228D
330
8AB
100
AcDbEntity
  8
Layer_0
  6
Continuous
100
AcDbCircle
 10
256.0338442288323
 20
22.78455973233292
 30
0.0
 40
0.9800257418716103
100
AcDbArc
 50
187.1705015941984
 51
210.1023996698679
1001
AcDbBlockRepETag
1070
     1
1071
      846
1005
228D
  0
ARC
  5
228E
330
8AB
100
AcDbEntity
  8
Layer_0
  6
Continuous
100
AcDbCircle
 10
256.287600127732
 20
22.81835591538401
 30
0.0
 40
1.236016957898214
100
AcDbArc
 50
180.2616307503654
 51
187.2566034788537
1001
AcDbBlockRepETag
1070
     1
1071
      847
1005
228E
  0
ARC
  5
228F
330
8AB
100
AcDbEntity
  8
Layer_0
  6
Continuous
100
AcDbCircle
 10
274.8829271574777
 20
22.91011941399551
 30
0.0
 40
19.83157032309353
100
AcDbArc
 50
179.8349501568626
 51
180.2814231275571
1001
AcDbBlockRepETag
1070
     1
1071
      848
1005
228F
  0
LINE
  5
2290
330
8AB
100
AcDbEntity
  8
Layer_0
  6
Continuous
100
AcDbLine
 10
256.1412426732537
 20
22.97090481321935
 30
0.0
 11
256.1414157840554
 21
22.87513894841799
 31
0.0
1001
AcDbBlockRepETag
1070
     1
1071
      849
1005
2290
  0
ARC
  5
2291
330
8AB
100
AcDbEntity
  8
Layer_0
  6
Continuous
100
AcDbCircle
 10
257.0951695135674
 20
22.88379668841685
 30
0.0
 40
0.9537930242038685
100
AcDbArc
 50
180.5200905875346
 51
188.6884056930341
1001
AcDbBlockRepETag
1070
     1
1071
      850
1005
2291
  0
ARC
  5
2292
330
8AB
100
AcDbEntity
  8
Layer_0
  6
Continuous
100
AcDbCircle
 10
256.8134888199983
 20
22.84306284777119
 30
0.0
 40
0.6691953777688299
100
AcDbArc
 50
188.88400322045
 51
200.1417989678493
1001
AcDbBlockRepETag
1070
     1
1071
      851
1005
2292
  0
ARC
  5
2293
330
8AB
100
AcDbEntity
  8
Layer_0
  6
Continuous
100
AcDbCircle
 10
256.7581949038767
 20
22.82952343689566
 30
0.0
 40
0.6126535205328062
100
AcDbArc
 50
200.7336815388734
 51
232.3710740670562
1001
AcDbBlockRepETag
1070
     1
1071
      852
1005
2293
  0
ARC
  5
2294
330
8AB
100
AcDbEntity
  8
Layer_0
  6
Continuous
100
AcDbCircle
 10
256.6837637793257
 20
22.734233549814
 30
0.0
 40
0.4917427371648037
100
AcDbArc
 50
232.4607100291268
 51
297.2141631514867
1001
AcDbBlockRepETag
1070
     1
1071
      853
1005
2294
  0
ARC
  5
2295
330
8AB
100
AcDbEntity
  8
Layer_0
  6
Continuous
100
AcDbCircle
 10
256.6964438731331
 20
22.70155061000411
 30
0.0
 40
0.4568935971205892
100
AcDbArc
 50
297.6744016429185
 51
319.5486294378953
1001
AcDbBlockRepETag
1070
     1
1071
      854
1005
2295
  0
ARC
  5
2296
330
8AB
100
AcDbEntity
  8
Layer_0
  6
Continuous
100
AcDbCircle
 10
256.6356564783591
 20
22.75437873766338
 30
0.0
 40
0.5374257410036061
100
AcDbArc
 50
319.467506620989
 51
332.1602433870558
1001
AcDbBlockRepETag
1070
     1
1071
      855
1005
2296
  0
ARC
  5
2297
330
8AB
100
AcDbEntity
  8
Layer_0
  6
Continuous
100
AcDbCircle
 10
256.5211973747013
 20
22.81639566122487
 30
0.0
 40
0.6676003842572471
100
AcDbArc
 50
332.0412517099014
 51
341.0522955025567
1001
AcDbBlockRepETag
1070
     1
1071
      856
1005
2297
  0
ARC
  5
2298
330
8AB
100
AcDbEntity
  8
Layer_0
  6
Continuous
100
AcDbCircle
 10
256.3735604550979
 20
22.86860228975717
 30
0.0
 40
0.8241906582306215
100
AcDbArc
 50
340.952233066021
 51
346.9348208232776
1001
AcDbBlockRepETag
1070
     1
1071
      857
1005
2298
  0
ARC
  5
2299
330
8AB
100
AcDbEntity
  8
Layer_0
  6
Continuous
100
AcDbCircle
 10
256.1023442361383
 20
22.93105642976286
 30
0.0
 40
1.102504490799063
100
AcDbArc
 50
346.959429973975
 51
353.415880201837
1001
AcDbBlockRepETag
1070
     1
1071
      858
1005
2299
  0
ARC
  5
229A
330
8AB
100
AcDbEntity
  8
Layer_0
  6
Continuous
100
AcDbCircle
 10
255.8059284263774
 20
22.96720130796722
 30
0.0
 40
1.40111106647141
100
AcDbArc
 50
353.3374099461257
 51
8.060359901865181
1001
AcDbBlockRepETag
1070
     1
1071
      859
1005
229A
  0
ARC
  5
229B
330
8AB
100
AcDbEntity
  8
Layer_0
  6
Continuous
100
AcDbCircle
 10
256.1689201651656
 20
23.01671789368731
 30
0.0
 40
1.034764017785121
100
AcDbArc
 50
8.163899815758592
 51
14.92231978239156
1001
AcDbBlockRepETag
1070
     1
1071
      860
1005
229B
  0
ARC
  5
229C
330
8AB
100
AcDbEntity
  8
Layer_0
  6
Continuous
100
AcDbCircle
 10
256.4336938502099
 20
23.08567138685054
 30
0.0
 40
0.7611650277289743
100
AcDbArc
 50
15.0392632005833
 51
23.37770641101888
1001
AcDbBlockRepETag
1070
     1
1071
      861
1005
229C
  0
ARC
  5
229D
330
8AB
100
AcDbEntity
  8
Layer_0
  6
Continuous
100
AcDbCircle
 10
256.5789313891414
 20
23.14836475772779
 30
0.0
 40
0.6029740262207829
100
AcDbArc
 50
23.38550767112427
 51
35.22589179778407
1001
AcDbBlockRepETag
1070
     1
1071
      862
1005
229D
  0
ARC
  5
229E
330
8AB
100
AcDbEntity
  8
Layer_0
  6
Continuous
100
AcDbCircle
 10
256.673272090353
 20
23.21436034039527
 30
0.0
 40
0.4878424949324507
100
AcDbArc
 50
35.28521478678495
 51
53.75603884728777
1001
AcDbBlockRepETag
1070
     1
1071
      863
1005
229E
  0
ARC
  5
229F
330
8AB
100
AcDbEntity
  8
Layer_0
  6
Continuous
100
AcDbCircle
 10
256.6899926328078
 20
23.23139797758722
 30
0.0
 40
0.4642284659435544
100
AcDbArc
 50
54.17717685884483
 51
83.01952571193004
1001
AcDbBlockRepETag
1070
     1
1071
      864
1005
229F
  0
ARC
  5
22A0
330
8AB
100
AcDbEntity
  8
Layer_0
  6
Continuous
100
AcDbCircle
 10
256.6837743888974
 20
23.21033809949426
 30
0.0
 40
0.4859013809349186
100
AcDbArc
 50
82.59352232688923
 51
127.8552643208382
1001
AcDbBlockRepETag
1070
     1
1071
      865
1005
22A0
  0
ARC
  5
22A1
330
8AB
100
AcDbEntity
  8
Layer_0
  6
Continuous
100
AcDbCircle
 10
256.7641665950345
 20
23.1041572352293
 30
0.0
 40
0.6190744033243656
100
AcDbArc
 50
127.6993026702643
 51
171.1767988945913
1001
AcDbBlockRepETag
1070
     1
1071
      866
1005
22A1
  0
ARC
  5
22A2
330
8AB
100
AcDbEntity
  8
Layer_0
  6
Continuous
100
AcDbCircle
 10
257.048058021799
 20
23.05747073738802
 30
0.0
 40
0.9067711096176083
100
AcDbArc
 50
171.0132049168527
 51
180.2330212340836
1001
AcDbBlockRepETag
1070
     1
1071
      867
1005
22A2
  0
ARC
  5
22A3
330
8AB
100
AcDbEntity
  8
Layer_0
  6
Continuous
100
AcDbCircle
 10
273.4399028366121
 20
23.00154489543638
 30
0.0
 40
17.29868729880962
100
AcDbArc
 50
179.8269797664061
 51
180.1014844816173
1001
AcDbBlockRepETag
1070
     1
1071
      868
1005
22A3
  0
LINE
  5
22A4
330
8AB
100
AcDbEntity
  8
Layer_0
  6
Continuous
100
AcDbLine
 10
258.5861603245214
 20
24.36683591052417
 30
0.0
 11
259.6066900320768
 21
24.36683591052417
 31
0.0
1001
AcDbBlockRepETag
1070
     1
1071
      869
1005
22A4
  0
LINE
  5
22A5
330
8AB
100
AcDbEntity
  8
Layer_0
  6
Continuous
100
AcDbLine
 10
259.6066900320768
 20
24.36683591052417
 30
0.0
 11
259.6066900320768
 21
23.90101050696864
 31
0.0
1001
AcDbBlockRepETag
1070
     1
1071
      870
1005
22A5
  0
LINE
  5
22A6
330
8AB
100
AcDbEntity
  8
Layer_0
  6
Continuous
100
AcDbLine
 10
259.6066900320768
 20
23.90101050696864
 30
0.0
 11
259.6570309920287
 21
24.00287825831128
 31
0.0
1001
AcDbBlockRepETag
1070
     1
1071
      871
1005
22A6
  0
ARC
  5
22A7
330
8AB
100
AcDbEntity
  8
Layer_0
  6
Continuous
100
AcDbCircle
 10
260.5553499698225
 20
23.5426512556504
 30
0.0
 40
1.00934923581627
100
AcDbArc
 50
140.5785784128452
 51
152.8730175524921
1001
AcDbBlockRepETag
1070
     1
1071
      872
1005
22A7
  0
ARC
  5
22A8
330
8AB
100
AcDbEntity
  8
Layer_0
  6
Continuous
100
AcDbCircle
 10
260.2805666788281
 20
23.75973852103606
 30
0.0
 40
0.659260570366233
100
AcDbArc
 50
96.56658392895188
 51
139.9881397754909
1001
AcDbBlockRepETag
1070
     1
1071
      873
1005
22A8
  0
ARC
  5
22A9
330
8AB
100
AcDbEntity
  8
Layer_0
  6
Continuous
100
AcDbCircle
 10
260.3226724190683
 20
23.46282757451558
 30
0.0
 40
0.9590711253297271
100
AcDbArc
 50
58.56727345232155
 51
97.03707488780224
1001
AcDbBlockRepETag
1070
     1
1071
      874
1005
22A9
  0
LINE
  5
22AA
330
8AB
100
AcDbEntity
  8
Layer_0
  6
Continuous
100
AcDbLine
 10
260.8228252134101
 20
24.28115795141309
 30
0.0
 11
260.4860930320769
 21
23.50490400207979
 31
0.0
1001
AcDbBlockRepETag
1070
     1
1071
      875
1005
22AA
  0
LINE
  5
22AB
330
8AB
100
AcDbEntity
  8
Layer_0
  6
Continuous
100
AcDbLine
 10
260.4860930320769
 20
23.50490400207979
 30
0.0
 11
260.412939043985
 21
23.53463597825463
 31
0.0
1001
AcDbBlockRepETag
1070
     1
1071
      876
1005
22AB
  0
ARC
  5
22AC
330
8AB
100
AcDbEntity
  8
Layer_0
  6
Continuous
100
AcDbCircle
 10
260.1678554013949
 20
22.884218519829
 30
0.0
 40
0.6950603298203541
100
AcDbArc
 50
69.35310149525992
 51
87.10987563782875
1001
AcDbBlockRepETag
1070
     1
1071
      877
1005
22AC
  0
ARC
  5
22AD
330
8AB
100
AcDbEntity
  8
Layer_0
  6
Continuous
100
AcDbCircle
 10
260.1847704441804
 20
23.20464658480307
 30
0.0
 40
0.3741876856823305
100
AcDbArc
 50
87.2227697626568
 51
134.6883834821415
1001
AcDbBlockRepETag
1070
     1
1071
      878
1005
22AD
  0
ARC
  5
22AE
330
8AB
100
AcDbEntity
  8
Layer_0
  6
Continuous
100
AcDbCircle
 10
260.3414269431993
 20
23.04106984279064
 30
0.0
 40
0.6006612079081341
100
AcDbArc
 50
134.3390955960168
 51
149.2652415429872
1001
AcDbBlockRepETag
1070
     1
1071
      879
1005
22AE
  0
ARC
  5
22AF
330
8AB
100
AcDbEntity
  8
Layer_0
  6
Continuous
100
AcDbCircle
 10
260.5563883533327
 20
22.90907109995725
 30
0.0
 40
0.8528971130687985
100
AcDbArc
 50
149.0234422918462
 51
166.8517107270755
1001
AcDbBlockRepETag
1070
     1
1071
      880
1005
22AF
  0
ARC
  5
22B0
330
8AB
100
AcDbEntity
  8
Layer_0
  6
Continuous
100
AcDbCircle
 10
261.0746382257352
 20
22.78408400591751
 30
0.0
 40
1.385997206434459
100
AcDbArc
 50
166.6936664507381
 51
174.6140358211303
1001
AcDbBlockRepETag
1070
     1
1071
      881
1005
22B0
  0
ARC
  5
22B1
330
8AB
100
AcDbEntity
  8
Layer_0
  6
Continuous
100
AcDbCircle
 10
262.678625066741
 20
22.62920099008942
 30
0.0
 40
2.997442645096247
100
AcDbArc
 50
174.5444212799492
 51
181.0330892692329
1001
AcDbBlockRepETag
1070
     1
1071
      882
1005
22B1
  0
LINE
  5
22B2
330
8AB
100
AcDbEntity
  8
Layer_0
  6
Continuous
100
AcDbLine
 10
259.6816696578546
 20
22.57515760207581
 30
0.0
 11
259.6816696578546
 21
22.47768712296863
 31
0.0
1001
AcDbBlockRepETag
1070
     1
1071
      883
1005
22B2
  0
LINE
  5
22B3
330
8AB
100
AcDbEntity
  8
Layer_0
  6
Continuous
100
AcDbLine
 10
259.6816696578546
 20
22.47768712296863
 30
0.0
 11
259.6816696578546
 21
21.52535857719089
 31
0.0
1001
AcDbBlockRepETag
1070
     1
1071
      884
1005
22B3
  0
LINE
  5
22B4
330
8AB
100
AcDbEntity
  8
Layer_0
  6
Continuous
100
AcDbLine
 10
259.6816696578546
 20
21.52535857719089
 30
0.0
 11
258.5861603245214
 21
21.52535857719089
 31
0.0
1001
AcDbBlockRepETag
1070
     1
1071
      885
1005
22B4
  0
LINE
  5
22B5
330
8AB
100
AcDbEntity
  8
Layer_0
  6
Continuous
100
AcDbLine
 10
258.5861603245214
 20
21.52535857719089
 30
0.0
 11
258.5861603245214
 21
24.36683591052417
 31
0.0
1001
AcDbBlockRepETag
1070
     1
1071
      886
1005
22B5
  0
LINE
  5
22B6
330
8AB
100
AcDbEntity
  8
Layer_0
  6
Continuous
100
AcDbLine
 10
262.2340065040657
 20
23.49846980424842
 30
0.0
 11
261.1955549485103
 21
23.60687958202618
 31
0.0
1001
AcDbBlockRepETag
1070
     1
1071
      887
1005
22B6
  0
LINE
  5
22B7
330
8AB
100
AcDbEntity
  8
Layer_0
  6
Continuous
100
AcDbLine
 10
261.1955549485103
 20
23.60687958202618
 30
0.0
 11
261.2125606844378
 21
23.68462030213993
 31
0.0
1001
AcDbBlockRepETag
1070
     1
1071
      888
1005
22B7
  0
ARC
  5
22B8
330
8AB
100
AcDbEntity
  8
Layer_0
  6
Continuous
100
AcDbCircle
 10
262.1886781449127
 20
23.46312942417569
 30
0.0
 40
1.00093131915478
100
AcDbArc
 50
155.9355265772609
 51
167.2154938326796
1001
AcDbBlockRepETag
1070
     1
1071
      889
1005
22B8
  0
ARC
  5
22B9
330
8AB
100
AcDbEntity
  8
Layer_0
  6
Continuous
100
AcDbCircle
 10
262.0948238232394
 20
23.49392055344514
 30
0.0
 40
0.9027357393405168
100
AcDbArc
 50
116.0415186273918
 51
155.2909553934102
1001
AcDbBlockRepETag
1070
     1
1071
      890
1005
22B9
  0
ARC
  5
22BA
330
8AB
100
AcDbEntity
  8
Layer_0
  6
Continuous
100
AcDbCircle
 10
262.2377768049234
 20
23.21172415259593
 30
0.0
 40
1.219050515223353
100
AcDbArc
 50
106.8598011412336
 51
116.2553388187584
1001
AcDbBlockRepETag
1070
     1
1071
      891
1005
22BA
  0
ARC
  5
22BB
330
8AB
100
AcDbEntity
  8
Layer_0
  6
Continuous
100
AcDbCircle
 10
262.3825365489044
 20
22.74991982411893
 30
0.0
 40
1.702996249520397
100
AcDbArc
 50
100.2750772815816
 51
107.0145673078689
1001
AcDbBlockRepETag
1070
     1
1071
      892
1005
22BB
  0
ARC
  5
22BC
330
8AB
100
AcDbEntity
  8
Layer_0
  6
Continuous
100
AcDbCircle
 10
262.5412812512045
 20
21.8978342571629
 30
0.0
 40
2.569736092155666
100
AcDbArc
 50
95.22330725872718
 51
100.3689175384859
1001
AcDbBlockRepETag
1070
     1
1071
      893
1005
22BC
  0
ARC
  5
22BD
330
8AB
100
AcDbEntity
  8
Layer_0
  6
Continuous
100
AcDbCircle
 10
262.7061731841547
 20
20.15106085618549
 30
0.0
 40
4.324270414337932
100
AcDbArc
 50
90.78469547275023
 51
95.29200757008016
1001
AcDbBlockRepETag
1070
     1
1071
      894
1005
22BD
  0
ARC
  5
22BE
330
8AB
100
AcDbEntity
  8
Layer_0
  6
Continuous
100
AcDbCircle
 10
262.7394674789006
 20
19.40118091222483
 30
0.0
 40
5.074588221554841
100
AcDbArc
 50
85.71541432199083
 51
91.04462576353915
1001
AcDbBlockRepETag
1070
     1
1071
      895
1005
22BE
  0
ARC
  5
22BF
330
8AB
100
AcDbEntity
  8
Layer_0
  6
Continuous
100
AcDbCircle
 10
262.8842520327216
 20
21.40848066967248
 30
0.0
 40
3.062086503422501
100
AcDbArc
 50
81.27665854019285
 51
85.61088610653214
1001
AcDbBlockRepETag
1070
     1
1071
      896
1005
22BF
  0
ARC
  5
22C0
330
8AB
100
AcDbEntity
  8
Layer_0
  6
Continuous
100
AcDbCircle
 10
263.0545080748706
 20
22.54008792489639
 30
0.0
 40
1.917750748494276
100
AcDbArc
 50
75.81416026793845
 51
81.17696127915987
1001
AcDbBlockRepETag
1070
     1
1071
      897
1005
22C0
  0
ARC
  5
22C1
330
8AB
100
AcDbEntity
  8
Layer_0
  6
Continuous
100
AcDbCircle
 10
263.2040624947196
 20
23.14219220705274
 30
0.0
 40
1.297358626598146
100
AcDbArc
 50
69.67073441413714
 51
75.7009930354221
1001
AcDbBlockRepETag
1070
     1
1071
      898
1005
22C1
  0
ARC
  5
22C2
330
8AB
100
AcDbEntity
  8
Layer_0
  6
Continuous
100
AcDbCircle
 10
263.335992021643
 20
23.49888434112312
 30
0.0
 40
0.9170500449947523
100
AcDbArc
 50
58.80316380600069
 51
69.65772461715001
1001
AcDbBlockRepETag
1070
     1
1071
      899
1005
22C2
  0
ARC
  5
22C3
330
8AB
100
AcDbEntity
  8
Layer_0
  6
Continuous
100
AcDbCircle
 10
263.4033157428166
 20
23.61598454804322
 30
0.0
 40
0.7820170530999599
100
AcDbArc
 50
32.2252984272215
 51
58.57843178448307
1001
AcDbBlockRepETag
1070
     1
1071
      900
1005
22C3
  0
ARC
  5
22C4
330
8AB
100
AcDbEntity
  8
Layer_0
  6
Continuous
100
AcDbCircle
 10
263.1475002353765
 20
23.4508193059147
 30
0.0
 40
1.086505556896043
100
AcDbArc
 50
23.09877590657395
 51
32.39980828485935
1001
AcDbBlockRepETag
1070
     1
1071
      901
1005
22C4
  0
ARC
  5
22C5
330
8AB
100
AcDbEntity
  8
Layer_0
  6
Continuous
100
AcDbCircle
 10
262.9544084095141
 20
23.35959256883938
 30
0.0
 40
1.299932640044629
100
AcDbArc
 50
11.98104263407794
 51
23.45842853614459
1001
AcDbBlockRepETag
1070
     1
1071
      902
1005
22C5
  0
ARC
  5
22C6
330
8AB
100
AcDbEntity
  8
Layer_0
  6
Continuous
100
AcDbCircle
 10
263.409927193406
 20
23.46251023504725
 30
0.0
 40
0.8329946953176181
100
AcDbArc
 50
358.051574609969
 51
11.56039776617472
1001
AcDbBlockRepETag
1070
     1
1071
      903
1005
22C6
  0
LINE
  5
22C7
330
8AB
100
AcDbEntity
  8
Layer_0
  6
Continuous
100
AcDbLine
 10
264.2424402818435
 20
23.43418851180399
 30
0.0
 11
264.2424402818435
 21
22.17998438113727
 31
0.0
1001
AcDbBlockRepETag
1070
     1
1071
      904
1005
22C7
  0
LINE
  5
22C8
330
8AB
100
AcDbEntity
  8
Layer_0
  6
Continuous
100
AcDbLine
 10
264.2424402818435
 20
22.17998438113727
 30
0.0
 11
264.2442696454915
 21
22.05652966937668
 31
0.0
1001
AcDbBlockRepETag
1070
     1
1071
      905
1005
22C8
  0
ARC
  5
22C9
330
8AB
100
AcDbEntity
  8
Layer_0
  6
Continuous
100
AcDbCircle
 10
265.3610334684212
 20
22.10975308630952
 30
0.0
 40
1.118031380737806
100
AcDbArc
 50
182.728572896806
 51
208.5380230066432
1001
AcDbBlockRepETag
1070
     1
1071
      906
1005
22C9
  0
LINE
  5
22CA
330
8AB
100
AcDbEntity
  8
Layer_0
  6
Continuous
100
AcDbLine
 10
264.3788426053991
 20
21.57562269313723
 30
0.0
 11
263.3551005449546
 21
21.57562269313723
 31
0.0
1001
AcDbBlockRepETag
1070
     1
1071
      907
1005
22CA
  0
LINE
  5
22CB
330
8AB
100
AcDbEntity
  8
Layer_0
  6
Continuous
100
AcDbLine
 10
263.3551005449546
 20
21.57562269313723
 30
0.0
 11
263.3024992668122
 21
21.67530309023015
 31
0.0
1001
AcDbBlockRepETag
1070
     1
1071
      908
1005
22CB
  0
ARC
  5
22CC
330
8AB
100
AcDbEntity
  8
Layer_0
  6
Continuous
100
AcDbCircle
 10
264.0342639802499
 20
22.00037339144625
 30
0.0
 40
0.80071861260081
100
AcDbArc
 50
185.4391848298221
 51
203.9521275406822
1001
AcDbBlockRepETag
1070
     1
1071
      909
1005
22CC
  0
LINE
  5
22CD
330
8AB
100
AcDbEntity
  8
Layer_0
  6
Continuous
100
AcDbLine
 10
263.2371507067325
 20
21.92447394647058
 30
0.0
 11
263.1831070114149
 21
21.8725490580906
 31
0.0
1001
AcDbBlockRepETag
1070
     1
1071
      910
1005
22CD
  0
ARC
  5
22CE
330
8AB
100
AcDbEntity
  8
Layer_0
  6
Continuous
100
AcDbCircle
 10
262.4168451147243
 20
22.68601778418348
 30
0.0
 40
1.11753687306108
100
AcDbArc
 50
295.5550608127441
 51
313.2883490506998
1001
AcDbBlockRepETag
1070
     1
1071
      911
1005
22CE
  0
ARC
  5
22CF
330
8AB
100
AcDbEntity
  8
Layer_0
  6
Continuous
100
AcDbCircle
 10
262.3080817301126
 20
22.9013914449897
 30
0.0
 40
1.35876894782327
100
AcDbArc
 50
285.8571390925945
 51
295.7749926672769
1001
AcDbBlockRepETag
1070
     1
1071
      912
1005
22CF
  0
ARC
  5
22D0
330
8AB
100
AcDbEntity
  8
Layer_0
  6
Continuous
100
AcDbCircle
 10
262.218394916463
 20
23.20662162011956
 30
0.0
 40
1.676892346397623
100
AcDbArc
 50
278.270261646873
 51
285.9552988486066
1001
AcDbBlockRepETag
1070
     1
1071
      913
1005
22D0
  0
ARC
  5
22D1
330
8AB
100
AcDbEntity
  8
Layer_0
  6
Continuous
100
AcDbCircle
 10
262.1624531714221
 20
23.56058026895982
 30
0.0
 40
2.035221691768946
100
AcDbArc
 50
266.5471568729456
 51
278.3954163333821
1001
AcDbBlockRepETag
1070
     1
1071
      914
1005
22D1
  0
ARC
  5
22D2
330
8AB
100
AcDbEntity
  8
Layer_0
  6
Continuous
100
AcDbCircle
 10
262.1409036705949
 20
23.15629167344968
 30
0.0
 40
1.630371608232648
100
AcDbArc
 50
260.879967157394
 51
266.4473966212115
1001
AcDbBlockRepETag
1070
     1
1071
      915
1005
22D2
  0
ARC
  5
22D3
330
8AB
100
AcDbEntity
  8
Layer_0
  6
Continuous
100
AcDbCircle
 10
262.0900466154
 20
22.83228167845595
 30
0.0
 40
1.302397092638311
100
AcDbArc
 50
255.7155390004149
 51
260.829705255284
1001
AcDbBlockRepETag
1070
     1
1071
      916
1005
22D3
  0
ARC
  5
22D4
330
8AB
100
AcDbEntity
  8
Layer_0
  6
Continuous
100
AcDbCircle
 10
262.0144358078064
 20
22.54101381306565
 30
0.0
 40
1.001479512740251
100
AcDbArc
 50
245.1998502916523
 51
255.7960235384269
1001
AcDbBlockRepETag
1070
     1
1071
      917
1005
22D4
  0
ARC
  5
22D5
330
8AB
100
AcDbEntity
  8
Layer_0
  6
Continuous
100
AcDbCircle
 10
261.9634233658298
 20
22.42877524938887
 30
0.0
 40
0.8781949379192798
100
AcDbArc
 50
229.3551486653954
 51
245.149543266934
1001
AcDbBlockRepETag
1070
     1
1071
      918
1005
22D5
  0
ARC
  5
22D6
330
8AB
100
AcDbEntity
  8
Layer_0
  6
Continuous
100
AcDbCircle
 10
261.8993834445618
 20
22.35234342751152
 30
0.0
 40
0.778488739271479
100
AcDbArc
 50
212.5072618690956
 51
229.2672544012319
1001
AcDbBlockRepETag
1070
     1
1071
      919
1005
22D6
  0
ARC
  5
22D7
330
8AB
100
AcDbEntity
  8
Layer_0
  6
Continuous
100
AcDbCircle
 10
261.854559083903
 20
22.32053691596274
 30
0.0
 40
0.7235994497613639
100
AcDbArc
 50
192.4321388517144
 51
212.2907573484151
1001
AcDbBlockRepETag
1070
     1
1071
      920
1005
22D7
  0
ARC
  5
22D8
330
8AB
100
AcDbEntity
  8
Layer_0
  6
Continuous
100
AcDbCircle
 10
261.9533356515812
 20
22.3434942868472
 30
0.0
 40
0.825003014325906
100
AcDbArc
 50
161.0345979626796
 51
192.5122922281945
1001
AcDbBlockRepETag
1070
     1
1071
      921
1005
22D8
  0
ARC
  5
22D9
330
8AB
100
AcDbEntity
  8
Layer_0
  6
Continuous
100
AcDbCircle
 10
261.8015845523855
 20
22.39494231006403
 30
0.0
 40
0.6647695944522967
100
AcDbArc
 50
148.749837505277
 51
160.9774110030097
1001
AcDbBlockRepETag
1070
     1
1071
      922
1005
22D9
  0
ARC
  5
22DA
330
8AB
100
AcDbEntity
  8
Layer_0
  6
Continuous
100
AcDbCircle
 10
261.7600225854357
 20
22.41635538699381
 30
0.0
 40
0.6181378236567902
100
AcDbArc
 50
132.2146422779007
 51
148.4481200720478
1001
AcDbBlockRepETag
1070
     1
1071
      923
1005
22DA
  0
ARC
  5
22DB
330
8AB
100
AcDbEntity
  8
Layer_0
  6
Continuous
100
AcDbCircle
 10
261.8440613040233
 20
22.32622398606622
 30
0.0
 40
0.7413604583886383
100
AcDbArc
 50
124.9546340981665
 51
132.344609001618
1001
AcDbBlockRepETag
1070
     1
1071
      924
1005
22DB
  0
ARC
  5
22DC
330
8AB
100
AcDbEntity
  8
Layer_0
  6
Continuous
100
AcDbCircle
 10
261.9495740517022
 20
22.17550978334872
 30
0.0
 40
0.9253378949706208
100
AcDbArc
 50
118.4899208131829
 51
124.9627168582036
1001
AcDbBlockRepETag
1070
     1
1071
      925
1005
22DC
  0
ARC
  5
22DD
330
8AB
100
AcDbEntity
  8
Layer_0
  6
Continuous
100
AcDbCircle
 10
262.0887898483526
 20
21.9201516454791
 30
0.0
 40
1.216179065442215
100
AcDbArc
 50
113.0547737514988
 51
118.5158327497805
1001
AcDbBlockRepETag
1070
     1
1071
      926
1005
22DD
  0
ARC
  5
22DE
330
8AB
100
AcDbEntity
  8
Layer_0
  6
Continuous
100
AcDbCircle
 10
262.2745842389544
 20
21.48789059770603
 30
0.0
 40
1.686675761660863
100
AcDbArc
 50
110.2438558002386
 51
113.1117410759451
1001
AcDbBlockRepETag
1070
     1
1071
      927
1005
22DE
  0
ARC
  5
22DF
330
8AB
100
AcDbEntity
  8
Layer_0
  6
Continuous
100
AcDbCircle
 10
262.5506070668884
 20
20.73518773384352
 30
0.0
 40
2.488391875960763
100
AcDbArc
 50
107.09165823062
 51
110.2098912625488
1001
AcDbBlockRepETag
1070
     1
1071
      928
1005
22DF
  0
ARC
  5
22E0
330
8AB
100
AcDbEntity
  8
Layer_0
  6
Continuous
100
AcDbCircle
 10
262.9998461509301
 20
19.27744811809963
 30
0.0
 40
4.013783616368092
100
AcDbArc
 50
104.3905419737352
 51
107.1054680804507
1001
AcDbBlockRepETag
1070
     1
1071
      929
1005
22E0
  0
ARC
  5
22E1
330
8AB
100
AcDbEntity
  8
Layer_0
  6
Continuous
100
AcDbCircle
 10
263.8010681854138
 20
16.17345853565847
 30
0.0
 40
7.219512248475168
100
AcDbArc
 50
102.5408295186626
 51
104.4274338497769
1001
AcDbBlockRepETag
1070
     1
1071
      930
1005
22E1
  0
ARC
  5
22E2
330
8AB
100
AcDbEntity
  8
Layer_0
  6
Continuous
100
AcDbCircle
 10
267.3954980265416
 20
0.1051003512004573
 30
0.0
 40
23.68498954959797
100
AcDbArc
 50
102.0636747589112
 51
102.5884001985985
1001
AcDbBlockRepETag
1070
     1
1071
      931
1005
22E2
  0
ARC
  5
22E3
330
8AB
100
AcDbEntity
  8
Layer_0
  6
Continuous
100
AcDbCircle
 10
260.4555955196644
 20
32.59014851077722
 30
0.0
 40
9.533087136078306
100
AcDbArc
 50
282.0475152438934
 51
284.0630730681201
1001
AcDbBlockRepETag
1070
     1
1071
      932
1005
22E3
  0
ARC
  5
22E4
330
8AB
100
AcDbEntity
  8
Layer_0
  6
Continuous
100
AcDbCircle
 10
262.0310601458595
 20
26.27146587353456
 30
0.0
 40
3.020969305284789
100
AcDbArc
 50
284.1982981456118
 51
292.2605299424382
1001
AcDbBlockRepETag
1070
     1
1071
      933
1005
22E4
  0
LINE
  5
22E5
330
8AB
100
AcDbEntity
  8
Layer_0
  6
Continuous
100
AcDbLine
 10
263.1754598373991
 20
23.47564669313726
 30
0.0
 11
263.1749753784849
 21
23.5409396275894
 31
0.0
1001
AcDbBlockRepETag
1070
     1
1071
      934
1005
22E5
  0
ARC
  5
22E6
330
8AB
100
AcDbEntity
  8
Layer_0
  6
Continuous
100
AcDbCircle
 10
262.8016313690045
 20
23.53087822648319
 30
0.0
 40
0.3734795592895509
100
AcDbArc
 50
1.543713857371958
 51
18.39458166118968
1001
AcDbBlockRepETag
1070
     1
1071
      935
1005
22E6
  0
ARC
  5
22E7
330
8AB
100
AcDbEntity
  8
Layer_0
  6
Continuous
100
AcDbCircle
 10
262.9404988692638
 20
23.57244034102995
 30
0.0
 40
0.2286340671637448
100
AcDbArc
 50
19.49287932502959
 51
61.90909070767041
1001
AcDbBlockRepETag
1070
     1
1071
      936
1005
22E7
  0
ARC
  5
22E8
330
8AB
100
AcDbEntity
  8
Layer_0
  6
Continuous
100
AcDbCircle
 10
262.876805966086
 20
23.46104756624253
 30
0.0
 40
0.3569157264403123
100
AcDbArc
 50
61.3089772560566
 51
76.76527636617738
1001
AcDbBlockRepETag
1070
     1
1071
      937
1005
22E8
  0
ARC
  5
22E9
330
8AB
100
AcDbEntity
  8
Layer_0
  6
Continuous
100
AcDbCircle
 10
262.798904814683
 20
23.14406977802354
 30
0.0
 40
0.6833172374927212
100
AcDbArc
 50
76.49167822307804
 51
86.60845447892871
1001
AcDbBlockRepETag
1070
     1
1071
      938
1005
22E9
  0
ARC
  5
22EA
330
8AB
100
AcDbEntity
  8
Layer_0
  6
Continuous
100
AcDbCircle
 10
262.7685054864818
 20
22.81883301760569
 30
0.0
 40
1.009843829503744
100
AcDbArc
 50
85.97835284945894
 51
100.219803983258
1001
AcDbBlockRepETag
1070
     1
1071
      939
1005
22EA
  0
ARC
  5
22EB
330
8AB
100
AcDbEntity
  8
Layer_0
  6
Continuous
100
AcDbCircle
 10
262.6912905473402
 20
23.25755558804314
 30
0.0
 40
0.5643850616126899
100
AcDbArc
 50
100.407659058997
 51
117.2713161770816
1001
AcDbBlockRepETag
1070
     1
1071
      940
1005
22EB
  0
ARC
  5
22EC
330
8AB
100
AcDbEntity
  8
Layer_0
  6
Continuous
100
AcDbCircle
 10
262.6093515247907
 20
23.42319009311085
 30
0.0
 40
0.3796288922936129
100
AcDbArc
 50
117.7336467565001
 51
163.3371301951823
1001
AcDbBlockRepETag
1070
     1
1071
      941
1005
22EC
  0
ARC
  5
22ED
330
8AB
100
AcDbEntity
  8
Layer_0
  6
Continuous
100
AcDbCircle
 10
310.7510145923522
 20
6.6720670347571
 30
0.0
 40
51.352
100
AcDbArc
 50
160.8330567261706
 51
160.8727115995153
1001
AcDbBlockRepETag
1070
     1
1071
      942
1005
22ED
  0
LINE
  5
22EE
330
8AB
100
AcDbEntity
  8
Layer_0
  6
Continuous
100
AcDbLine
 10
263.1754598373991
 20
22.92789202647065
 30
0.0
 11
263.0843308133246
 21
22.89553094180325
 31
0.0
1001
AcDbBlockRepETag
1070
     1
1071
      943
1005
22EE
  0
ARC
  5
22EF
330
8AB
100
AcDbEntity
  8
Layer_0
  6
Continuous
100
AcDbCircle
 10
261.6851255817598
 20
27.02324214483621
 30
0.0
 40
4.358414282245539
100
AcDbArc
 50
285.5268232671257
 51
288.7255524746798
1001
AcDbBlockRepETag
1070
     1
1071
      944
1005
22EF
  0
ARC
  5
22F0
330
8AB
100
AcDbEntity
  8
Layer_0
  6
Continuous
100
AcDbCircle
 10
266.6361973782361
 20
9.337685655335798
 30
0.0
 40
14.00710849337317
100
AcDbArc
 50
105.6746790619147
 51
106.4662754296824
1001
AcDbBlockRepETag
1070
     1
1071
      945
1005
22F0
  0
ARC
  5
22F1
330
8AB
100
AcDbEntity
  8
Layer_0
  6
Continuous
100
AcDbCircle
 10
263.5554097616911
 20
19.78701718436036
 30
0.0
 40
3.113094871245773
100
AcDbArc
 50
106.6031749557187
 51
109.3059804857143
1001
AcDbBlockRepETag
1070
     1
1071
      946
1005
22F1
  0
ARC
  5
22F2
330
8AB
100
AcDbEntity
  8
Layer_0
  6
Continuous
100
AcDbCircle
 10
262.9871505892742
 20
21.41816347512849
 30
0.0
 40
1.385803106924794
100
AcDbArc
 50
109.4289430367348
 51
113.070428725014
1001
AcDbBlockRepETag
1070
     1
1071
      947
1005
22F2
  0
ARC
  5
22F3
330
8AB
100
AcDbEntity
  8
Layer_0
  6
Continuous
100
AcDbCircle
 10
262.7272376078963
 20
22.02931599769897
 30
0.0
 40
0.7216781843514841
100
AcDbArc
 50
113.0991295036856
 51
120.4125082804282
1001
AcDbBlockRepETag
1070
     1
1071
      948
1005
22F3
  0
ARC
  5
22F4
330
8AB
100
AcDbEntity
  8
Layer_0
  6
Continuous
100
AcDbCircle
 10
262.5780002169026
 20
22.28561629510556
 30
0.0
 40
0.4250980133573591
100
AcDbArc
 50
120.5529600878937
 51
130.6640317614086
1001
AcDbBlockRepETag
1070
     1
1071
      949
1005
22F4
  0
ARC
  5
22F5
330
8AB
100
AcDbEntity
  8
Layer_0
  6
Continuous
100
AcDbCircle
 10
262.4771755091912
 20
22.40310432286571
 30
0.0
 40
0.2702786062748879
100
AcDbArc
 50
130.6805440151817
 51
210.7652860147922
1001
AcDbBlockRepETag
1070
     1
1071
      950
1005
22F5
  0
ARC
  5
22F6
330
8AB
100
AcDbEntity
  8
Layer_0
  6
Continuous
100
AcDbCircle
 10
262.4662781133711
 20
22.40130808034234
 30
0.0
 40
0.2600272266452887
100
AcDbArc
 50
211.653490397034
 51
239.839460107621
1001
AcDbBlockRepETag
1070
     1
1071
      951
1005
22F6
  0
ARC
  5
22F7
330
8AB
100
AcDbEntity
  8
Layer_0
  6
Continuous
100
AcDbCircle
 10
262.5048003392264
 20
22.46413653942704
 30
0.0
 40
0.333709086660193
100
AcDbArc
 50
239.5406147801909
 51
255.494637542635
1001
AcDbBlockRepETag
1070
     1
1071
      952
1005
22F7
  0
ARC
  5
22F8
330
8AB
100
AcDbEntity
  8
Layer_0
  6
Continuous
100
AcDbCircle
 10
262.5458232130281
 20
22.61800902157199
 30
0.0
 40
0.4929531847700531
100
AcDbArc
 50
255.3581022208975
 51
267.7007060417849
1001
AcDbBlockRepETag
1070
     1
1071
      953
1005
22F8
  0
ARC
  5
22F9
330
8AB
100
AcDbEntity
  8
Layer_0
  6
Continuous
100
AcDbCircle
 10
262.554507223022
 20
22.796625254707
 30
0.0
 40
0.6717757094590966
100
AcDbArc
 50
267.571830283457
 51
310.5925158806754
1001
AcDbBlockRepETag
1070
     1
1071
      954
1005
22F9
  0
ARC
  5
22FA
330
8AB
100
AcDbEntity
  8
Layer_0
  6
Continuous
100
AcDbCircle
 10
262.641853360958
 20
22.68839061339531
 30
0.0
 40
0.532768867327666
100
AcDbArc
 50
311.0333125012398
 51
357.3831604722763
1001
AcDbBlockRepETag
1070
     1
1071
      955
1005
22FA
  0
ARC
  5
22FB
330
8AB
100
AcDbEntity
  8
Layer_0
  6
Continuous
100
AcDbCircle
 10
261.9071901043239
 20
22.72853089863042
 30
0.0
 40
1.268515624073452
100
AcDbArc
 50
357.0870310897667
 51
1.128153124583109
1001
AcDbBlockRepETag
1070
     1
1071
      956
1005
22FB
  0
LINE
  5
22FC
330
8AB
100
AcDbEntity
  8
Layer_0
  6
Continuous
100
AcDbLine
 10
263.1754598373991
 20
22.75350634024834
 30
0.0
 11
263.1754598373991
 21
22.92789202647065
 31
0.0
1001
AcDbBlockRepETag
1070
     1
1071
      957
1005
22FC
  0
LINE
  5
22FD
330
8AB
100
AcDbEntity
  8
Layer_0
  6
Continuous
100
AcDbLine
 10
266.173558029244
 20
25.50265502195679
 30
0.0
 11
266.173558029244
 21
24.42426302195678
 31
0.0
1001
AcDbBlockRepETag
1070
     1
1071
      958
1005
22FD
  0
LINE
  5
22FE
330
8AB
100
AcDbEntity
  8
Layer_0
  6
Continuous
100
AcDbLine
 10
266.173558029244
 20
24.42426302195678
 30
0.0
 11
266.7726646959108
 21
24.42426302195678
 31
0.0
1001
AcDbBlockRepETag
1070
     1
1071
      959
1005
22FE
  0
LINE
  5
22FF
330
8AB
100
AcDbEntity
  8
Layer_0
  6
Continuous
100
AcDbLine
 10
266.7726646959108
 20
24.42426302195678
 30
0.0
 11
266.7726646959108
 21
23.62545413306793
 31
0.0
1001
AcDbBlockRepETag
1070
     1
1071
      960
1005
22FF
  0
LINE
  5
2300
330
8AB
100
AcDbEntity
  8
Layer_0
  6
Continuous
100
AcDbLine
 10
266.7726646959108
 20
23.62545413306793
 30
0.0
 11
266.173558029244
 21
23.62545413306793
 31
0.0
1001
AcDbBlockRepETag
1070
     1
1071
      961
1005
2300
  0
LINE
  5
2301
330
8AB
100
AcDbEntity
  8
Layer_0
  6
Continuous
100
AcDbLine
 10
266.173558029244
 20
23.62545413306793
 30
0.0
 11
266.173558029244
 21
22.62078648773456
 31
0.0
1001
AcDbBlockRepETag
1070
     1
1071
      962
1005
2301
  0
LINE
  5
2302
330
8AB
100
AcDbEntity
  8
Layer_0
  6
Continuous
100
AcDbLine
 10
266.173558029244
 20
22.62078648773456
 30
0.0
 11
266.1744994369312
 21
22.54210546305068
 31
0.0
1001
AcDbBlockRepETag
1070
     1
1071
      963
1005
2302
  0
ARC
  5
2303
330
8AB
100
AcDbEntity
  8
Layer_0
  6
Continuous
100
AcDbCircle
 10
266.62127383006
 20
22.55758712567853
 30
0.0
 40
0.4470425485716046
100
AcDbArc
 50
181.9846239116004
 51
197.3186033255465
1001
AcDbBlockRepETag
1070
     1
1071
      964
1005
2303
  0
ARC
  5
2304
330
8AB
100
AcDbEntity
  8
Layer_0
  6
Continuous
100
AcDbCircle
 10
266.3798462256247
 20
22.48512281894965
 30
0.0
 40
0.1950072899887085
100
AcDbArc
 50
198.1090641626254
 51
228.8926020974818
1001
AcDbBlockRepETag
1070
     1
1071
      965
1005
2304
  0
ARC
  5
2305
330
8AB
100
AcDbEntity
  8
Layer_0
  6
Continuous
100
AcDbCircle
 10
266.3595043844834
 20
22.47203550915401
 30
0.0
 40
0.1719035811440958
100
AcDbArc
 50
231.1338263120957
 51
257.3103536426086
1001
AcDbBlockRepETag
1070
     1
1071
      966
1005
2305
  0
ARC
  5
2306
330
8AB
100
AcDbEntity
  8
Layer_0
  6
Continuous
100
AcDbCircle
 10
266.4092519928033
 20
22.67548690063199
 30
0.0
 40
0.3813329120185558
100
AcDbArc
 50
256.7333283132965
 51
272.5750250646944
1001
AcDbBlockRepETag
1070
     1
1071
      967
1005
2306
  0
ARC
  5
2307
330
8AB
100
AcDbEntity
  8
Layer_0
  6
Continuous
100
AcDbCircle
 10
266.3781387419819
 20
23.27389545762673
 30
0.0
 40
0.9805440481459385
100
AcDbArc
 50
272.8202565782555
 51
291.1772651577663
1001
AcDbBlockRepETag
1070
     1
1071
      968
1005
2307
  0
LINE
  5
2308
330
8AB
100
AcDbEntity
  8
Layer_0
  6
Continuous
100
AcDbLine
 10
266.7323647874663
 20
22.35957027529013
 30
0.0
 11
266.8126051403553
 21
21.60827910373461
 31
0.0
1001
AcDbBlockRepETag
1070
     1
1071
      969
1005
2308
  0
LINE
  5
2309
330
8AB
100
AcDbEntity
  8
Layer_0
  6
Continuous
100
AcDbLine
 10
266.8126051403553
 20
21.60827910373461
 30
0.0
 11
266.6794084332875
 21
21.57963018500038
 31
0.0
1001
AcDbBlockRepETag
1070
     1
1071
      970
1005
2309
  0
ARC
  5
230A
330
8AB
100
AcDbEntity
  8
Layer_0
  6
Continuous
100
AcDbCircle
 10
266.1289843035979
 20
24.36404686427965
 30
0.0
 40
2.838299308810367
100
AcDbArc
 50
270.5698447531062
 51
281.1820746589827
1001
AcDbBlockRepETag
1070
     1
1071
      971
1005
230A
  0
ARC
  5
230B
330
8AB
100
AcDbEntity
  8
Layer_0
  6
Continuous
100
AcDbCircle
 10
266.1019421702774
 20
24.41104736573197
 30
0.0
 40
2.885688788541065
100
AcDbArc
 50
265.2055494052187
 51
271.0974700660256
1001
AcDbBlockRepETag
1070
     1
1071
      972
1005
230B
  0
ARC
  5
230C
330
8AB
100
AcDbEntity
  8
Layer_0
  6
Continuous
100
AcDbCircle
 10
266.0012667147884
 20
23.1552353039392
 30
0.0
 40
1.625862895020013
100
AcDbArc
 50
259.2447743367201
 51
265.0420609224873
1001
AcDbBlockRepETag
1070
     1
1071
      973
1005
230C
  0
ARC
  5
230D
330
8AB
100
AcDbEntity
  8
Layer_0
  6
Continuous
100
AcDbCircle
 10
265.8765882312886
 20
22.48843732716772
 30
0.0
 40
0.9475135950862688
100
AcDbArc
 50
248.6847773040779
 51
259.127143129848
1001
AcDbBlockRepETag
1070
     1
1071
      974
1005
230D
  0
ARC
  5
230E
330
8AB
100
AcDbEntity
  8
Layer_0
  6
Continuous
100
AcDbCircle
 10
265.7556306194921
 20
22.17774251215587
 30
0.0
 40
0.6141040682118412
100
AcDbArc
 50
211.8976986664399
 51
248.6611061811769
1001
AcDbBlockRepETag
1070
     1
1071
      975
1005
230E
  0
ARC
  5
230F
330
8AB
100
AcDbEntity
  8
Layer_0
  6
Continuous
100
AcDbCircle
 10
265.9590811752334
 20
22.307665225616
 30
0.0
 40
0.8554884399589417
100
AcDbArc
 50
195.9742972621583
 51
212.0851821427451
1001
AcDbBlockRepETag
1070
     1
1071
      976
1005
230F
  0
ARC
  5
2310
330
8AB
100
AcDbEntity
  8
Layer_0
  6
Continuous
100
AcDbCircle
 10
266.2610262066646
 20
22.400428554742
 30
0.0
 40
1.171318775767641
100
AcDbArc
 50
185.562676789502
 51
196.2719099741681
1001
AcDbBlockRepETag
1070
     1
1071
      977
1005
2310
  0
ARC
  5
2311
330
8AB
100
AcDbEntity
  8
Layer_0
  6
Continuous
100
AcDbCircle
 10
267.8246661696578
 20
22.5492854421418
 30
0.0
 40
2.742026681562624
100
AcDbArc
 50
178.3660034415499
 51
185.4913212028051
1001
AcDbBlockRepETag
1070
     1
1071
      978
1005
2311
  0
LINE
  5
2312
330
8AB
100
AcDbEntity
  8
Layer_0
  6
Continuous
100
AcDbLine
 10
265.0837544736887
 20
22.6274736592901
 30
0.0
 11
265.0837544736887
 21
23.62545413306793
 31
0.0
1001
AcDbBlockRepETag
1070
     1
1071
      979
1005
2312
  0
LINE
  5
2313
330
8AB
100
AcDbEntity
  8
Layer_0
  6
Continuous
100
AcDbLine
 10
265.0837544736887
 20
23.62545413306793
 30
0.0
 11
264.684350029244
 21
23.62545413306793
 31
0.0
1001
AcDbBlockRepETag
1070
     1
1071
      980
1005
2313
  0
LINE
  5
2314
330
8AB
100
AcDbEntity
  8
Layer_0
  6
Continuous
100
AcDbLine
 10
264.684350029244
 20
23.62545413306793
 30
0.0
 11
264.684350029244
 21
24.42426302195678
 31
0.0
1001
AcDbBlockRepETag
1070
     1
1071
      981
1005
2314
  0
LINE
  5
2315
330
8AB
100
AcDbEntity
  8
Layer_0
  6
Continuous
100
AcDbLine
 10
264.684350029244
 20
24.42426302195678
 30
0.0
 11
265.0837544736887
 21
24.42426302195678
 31
0.0
1001
AcDbBlockRepETag
1070
     1
1071
      982
1005
2315
  0
LINE
  5
2316
330
8AB
100
AcDbEntity
  8
Layer_0
  6
Continuous
100
AcDbLine
 10
265.0837544736887
 20
24.42426302195678
 30
0.0
 11
265.0837544736887
 21
24.94473265929013
 31
0.0
1001
AcDbBlockRepETag
1070
     1
1071
      983
1005
2316
  0
LINE
  5
2317
330
8AB
100
AcDbEntity
  8
Layer_0
  6
Continuous
100
AcDbLine
 10
265.0837544736887
 20
24.94473265929013
 30
0.0
 11
266.173558029244
 21
25.50265502195679
 31
0.0
1001
AcDbBlockRepETag
1070
     1
1071
      984
1005
2317
  0
LINE
  5
2318
330
8AB
100
AcDbEntity
  8
Layer_0
  6
Continuous
100
AcDbLine
 10
267.4236199880454
 20
25.44522791052417
 30
0.0
 11
268.5134235436009
 21
25.44522791052417
 31
0.0
1001
AcDbBlockRepETag
1070
     1
1071
      985
1005
2318
  0
LINE
  5
2319
330
8AB
100
AcDbEntity
  8
Layer_0
  6
Continuous
100
AcDbLine
 10
268.5134235436009
 20
25.44522791052417
 30
0.0
 11
268.5134235436009
 21
24.70347679941312
 31
0.0
1001
AcDbBlockRepETag
1070
     1
1071
      986
1005
2319
  0
LINE
  5
231A
330
8AB
100
AcDbEntity
  8
Layer_0
  6
Continuous
100
AcDbLine
 10
268.5134235436009
 20
24.70347679941312
 30
0.0
 11
267.4236199880454
 21
24.70347679941312
 31
0.0
1001
AcDbBlockRepETag
1070
     1
1071
      987
1005
231A
  0
LINE
  5
231B
330
8AB
100
AcDbEntity
  8
Layer_0
  6
Continuous
100
AcDbLine
 10
267.4236199880454
 20
24.70347679941312
 30
0.0
 11
267.4236199880454
 21
25.44522791052417
 31
0.0
1001
AcDbBlockRepETag
1070
     1
1071
      988
1005
231B
  0
LINE
  5
231C
330
8AB
100
AcDbEntity
  8
Layer_0
  6
Continuous
100
AcDbLine
 10
267.4236199880454
 20
24.36683591052417
 30
0.0
 11
268.5134235436009
 21
24.36683591052417
 31
0.0
1001
AcDbBlockRepETag
1070
     1
1071
      989
1005
231C
  0
LINE
  5
231D
330
8AB
100
AcDbEntity
  8
Layer_0
  6
Continuous
100
AcDbLine
 10
268.5134235436009
 20
24.36683591052417
 30
0.0
 11
268.5134235436009
 21
21.52535857719089
 31
0.0
1001
AcDbBlockRepETag
1070
     1
1071
      990
1005
231D
  0
LINE
  5
231E
330
8AB
100
AcDbEntity
  8
Layer_0
  6
Continuous
100
AcDbLine
 10
268.5134235436009
 20
21.52535857719089
 30
0.0
 11
267.4236199880454
 21
21.52535857719089
 31
0.0
1001
AcDbBlockRepETag
1070
     1
1071
      991
1005
231E
  0
LINE
  5
231F
330
8AB
100
AcDbEntity
  8
Layer_0
  6
Continuous
100
AcDbLine
 10
267.4236199880454
 20
21.52535857719089
 30
0.0
 11
267.4236199880454
 21
24.36683591052417
 31
0.0
1001
AcDbBlockRepETag
1070
     1
1071
      992
1005
231F
  0
LINE
  5
2320
330
8AB
100
AcDbEntity
  8
Layer_0
  6
Continuous
100
AcDbLine
 10
269.1259036103312
 20
22.96724740966385
 30
0.0
 11
269.1260498503668
 21
23.11115891240535
 31
0.0
1001
AcDbBlockRepETag
1070
     1
1071
      993
1005
2320
  0
ARC
  5
2321
330
8AB
100
AcDbEntity
  8
Layer_0
  6
Continuous
100
AcDbCircle
 10
270.3450346458987
 20
23.1026840871317
 30
0.0
 40
1.219014255208458
100
AcDbArc
 50
172.9400003992187
 51
179.6016653375392
1001
AcDbBlockRepETag
1070
     1
1071
      994
1005
2321
  0
ARC
  5
2322
330
8AB
100
AcDbEntity
  8
Layer_0
  6
Continuous
100
AcDbCircle
 10
270.1533154190922
 20
23.12219364063355
 30
0.0
 40
1.026359355984301
100
AcDbArc
 50
151.505510000468
 51
172.7054081293679
1001
AcDbBlockRepETag
1070
     1
1071
      995
1005
2322
  0
ARC
  5
2323
330
8AB
100
AcDbEntity
  8
Layer_0
  6
Continuous
100
AcDbCircle
 10
270.2883299498882
 20
23.05184620525801
 30
0.0
 40
1.178582418056825
100
AcDbArc
 50
145.2137102365826
 51
151.6312358853241
1001
AcDbBlockRepETag
1070
     1
1071
      996
1005
2323
  0
ARC
  5
2324
330
8AB
100
AcDbEntity
  8
Layer_0
  6
Continuous
100
AcDbCircle
 10
270.4859524070025
 20
22.9148362025445
 30
0.0
 40
1.419053487497617
100
AcDbArc
 50
137.331138684686
 51
145.2226987603807
1001
AcDbBlockRepETag
1070
     1
1071
      997
1005
2324
  0
ARC
  5
2325
330
8AB
100
AcDbEntity
  8
Layer_0
  6
Continuous
100
AcDbCircle
 10
270.6500349543087
 20
22.76102964154347
 30
0.0
 40
1.643945641061579
100
AcDbArc
 50
108.6718393714938
 51
137.2655201889723
1001
AcDbBlockRepETag
1070
     1
1071
      998
1005
2325
  0
ARC
  5
2326
330
8AB
100
AcDbEntity
  8
Layer_0
  6
Continuous
100
AcDbCircle
 10
270.6931691801109
 20
22.6386065240573
 30
0.0
 40
1.773735450592888
100
AcDbArc
 50
104.4371398018016
 51
108.7258014194255
1001
AcDbBlockRepETag
1070
     1
1071
      999
1005
2326
  0
ARC
  5
2327
330
8AB
100
AcDbEntity
  8
Layer_0
  6
Continuous
100
AcDbCircle
 10
270.7538246521594
 20
22.40032450669263
 30
0.0
 40
2.019615531885811
100
AcDbArc
 50
98.59619757283777
 51
104.4181933713803
1001
AcDbBlockRepETag
1070
     1
1071
     1000
1005
2327
  0
ARC
  5
2328
330
8AB
100
AcDbEntity
  8
Layer_0
  6
Continuous
100
AcDbCircle
 10
270.7897690746233
 20
22.16727873740887
 30
0.0
 40
2.255416049394947
100
AcDbArc
 50
82.60827607383445
 51
98.61416675715688
1001
AcDbBlockRepETag
1070
     1
1071
     1001
1005
2328
  0
ARC
  5
2329
330
8AB
100
AcDbEntity
  8
Layer_0
  6
Continuous
100
AcDbCircle
 10
270.8270432267465
 20
22.47478449815241
 30
0.0
 40
1.945672062302688
100
AcDbArc
 50
76.5286760460415
 51
82.53180170968986
1001
AcDbBlockRepETag
1070
     1
1071
     1002
1005
2329
  0
ARC
  5
232A
330
8AB
100
AcDbEntity
  8
Layer_0
  6
Continuous
100
AcDbCircle
 10
270.8888804778402
 20
22.73804487666688
 30
0.0
 40
1.675249763229236
100
AcDbArc
 50
71.98715224693913
 51
76.48787768550815
1001
AcDbBlockRepETag
1070
     1
1071
     1003
1005
232A
  0
ARC
  5
232B
330
8AB
100
AcDbEntity
  8
Layer_0
  6
Continuous
100
AcDbCircle
 10
270.9696620503852
 20
22.98152681630358
 30
0.0
 40
1.418722274885092
100
AcDbArc
 50
61.92296652968236
 51
72.04895258545537
1001
AcDbBlockRepETag
1070
     1
1071
     1004
1005
232B
  0
ARC
  5
232C
330
8AB
100
AcDbEntity
  8
Layer_0
  6
Continuous
100
AcDbCircle
 10
271.0241936173138
 20
23.08569651644222
 30
0.0
 40
1.301146313134756
100
AcDbArc
 50
33.83096086917654
 51
61.88270648653339
1001
AcDbBlockRepETag
1070
     1
1071
     1005
1005
232C
  0
ARC
  5
232D
330
8AB
100
AcDbEntity
  8
Layer_0
  6
Continuous
100
AcDbCircle
 10
270.9386020053809
 20
23.0273498972258
 30
0.0
 40
1.404730273662166
100
AcDbArc
 50
22.34236851969302
 51
33.86419972740576
1001
AcDbBlockRepETag
1070
     1
1071
     1006
1005
232D
  0
ARC
  5
232E
330
8AB
100
AcDbEntity
  8
Layer_0
  6
Continuous
100
AcDbCircle
 10
270.7982773088728
 20
22.96987701515467
 30
0.0
 40
1.556368401526523
100
AcDbArc
 50
5.532096219894013
 51
22.33556779178085
1001
AcDbBlockRepETag
1070
     1
1071
     1007
1005
232E
  0
ARC
  5
232F
330
8AB
100
AcDbEntity
  8
Layer_0
  6
Continuous
100
AcDbCircle
 10
270.7816145318258
 20
22.96362090504226
 30
0.0
 40
1.573563463167109
100
AcDbArc
 50
351.1319269182277
 51
5.700340232080407
1001
AcDbBlockRepETag
1070
     1
1071
     1008
1005
232F
  0
ARC
  5
2330
330
8AB
100
AcDbEntity
  8
Layer_0
  6
Continuous
100
AcDbCircle
 10
270.9188160882463
 20
22.9431582679108
 30
0.0
 40
1.434847811309403
100
AcDbArc
 50
339.7936604357464
 51
351.0946729205631
1001
AcDbBlockRepETag
1070
     1
1071
     1009
1005
2330
  0
ARC
  5
2331
330
8AB
100
AcDbEntity
  8
Layer_0
  6
Continuous
100
AcDbCircle
 10
271.0127075081638
 20
22.91236578226312
 30
0.0
 40
1.336103840188563
100
AcDbArc
 50
313.0415119186031
 51
339.6421585154412
1001
AcDbBlockRepETag
1070
     1
1071
     1010
1005
2331
  0
ARC
  5
2332
330
8AB
100
AcDbEntity
  8
Layer_0
  6
Continuous
100
AcDbCircle
 10
270.9551698528896
 20
22.97168392759851
 30
0.0
 40
1.418728991790731
100
AcDbArc
 50
296.5999395913854
 51
313.1047406259851
1001
AcDbBlockRepETag
1070
     1
1071
     1011
1005
2332
  0
ARC
  5
2333
330
8AB
100
AcDbEntity
  8
Layer_0
  6
Continuous
100
AcDbCircle
 10
270.9065400049821
 20
23.06386736274202
 30
0.0
 40
1.522931253674253
100
AcDbArc
 50
287.4894181851972
 51
296.6829610613853
1001
AcDbBlockRepETag
1070
     1
1071
     1012
1005
2333
  0
ARC
  5
2334
330
8AB
100
AcDbEntity
  8
Layer_0
  6
Continuous
100
AcDbCircle
 10
270.8393255629186
 20
23.27512844421164
 30
0.0
 40
1.74462629958709
100
AcDbArc
 50
281.2796566651382
 51
287.5096833841388
1001
AcDbBlockRepETag
1070
     1
1071
     1013
1005
2334
  0
ARC
  5
2335
330
8AB
100
AcDbEntity
  8
Layer_0
  6
Continuous
100
AcDbCircle
 10
270.7924992669997
 20
23.50847209773633
 30
0.0
 40
1.982621874147125
100
AcDbArc
 50
273.7909316464815
 51
281.2877560498555
1001
AcDbBlockRepETag
1070
     1
1071
     1014
1005
2335
  0
ARC
  5
2336
330
8AB
100
AcDbEntity
  8
Layer_0
  6
Continuous
100
AcDbCircle
 10
270.7800100248495
 20
23.66174103781167
 30
0.0
 40
2.136382460620867
100
AcDbArc
 50
259.7783585614767
 51
273.8533768904413
1001
AcDbBlockRepETag
1070
     1
1071
     1015
1005
2336
  0
ARC
  5
2337
330
8AB
100
AcDbEntity
  8
Layer_0
  6
Continuous
100
AcDbCircle
 10
270.7414441008684
 20
23.44584630254905
 30
0.0
 40
1.917070526811943
100
AcDbArc
 50
252.1152360717929
 51
259.7676563476973
1001
AcDbBlockRepETag
1070
     1
1071
     1016
1005
2337
  0
ARC
  5
2338
330
8AB
100
AcDbEntity
  8
Layer_0
  6
Continuous
100
AcDbCircle
 10
270.7077995203401
 20
23.32825708537882
 30
0.0
 40
1.794835976147766
100
AcDbArc
 50
231.2147684927011
 51
251.9845665353192
1001
AcDbBlockRepETag
1070
     1
1071
     1017
1005
2338
  0
ARC
  5
2339
330
8AB
100
AcDbEntity
  8
Layer_0
  6
Continuous
100
AcDbCircle
 10
270.5816097712645
 20
23.16865141206198
 30
0.0
 40
1.591378632432877
100
AcDbArc
 50
223.5828829833021
 51
231.1567080078092
1001
AcDbBlockRepETag
1070
     1
1071
     1018
1005
2339
  0
ARC
  5
233A
330
8AB
100
AcDbEntity
  8
Layer_0
  6
Continuous
100
AcDbCircle
 10
270.3992289335983
 20
22.99377319668678
 30
0.0
 40
1.338704730189857
100
AcDbArc
 50
217.3165979285773
 51
223.5424812420994
1001
AcDbBlockRepETag
1070
     1
1071
     1019
1005
233A
  0
ARC
  5
233B
330
8AB
100
AcDbEntity
  8
Layer_0
  6
Continuous
100
AcDbCircle
 10
270.1912533148163
 20
22.83531927392925
 30
0.0
 40
1.077244409926681
100
AcDbArc
 50
210.2254228446611
 51
217.3198243307816
1001
AcDbBlockRepETag
1070
     1
1071
     1020
1005
233B
  0
ARC
  5
233C
330
8AB
100
AcDbEntity
  8
Layer_0
  6
Continuous
100
AcDbCircle
 10
270.1083087214651
 20
22.78455973233292
 30
0.0
 40
0.9800257418716103
100
AcDbArc
 50
187.1705015941984
 51
210.1023996698679
1001
AcDbBlockRepETag
1070
     1
1071
     1021
1005
233C
  0
ARC
  5
233D
330
8AB
100
AcDbEntity
  8
Layer_0
  6
Continuous
100
AcDbCircle
 10
270.362064620365
 20
22.81835591538401
 30
0.0
 40
1.236016957898214
100
AcDbArc
 50
180.2616307503654
 51
187.2566034788537
1001
AcDbBlockRepETag
1070
     1
1071
     1022
1005
233D
  0
ARC
  5
233E
330
8AB
100
AcDbEntity
  8
Layer_0
  6
Continuous
100
AcDbCircle
 10
288.9573916501108
 20
22.91011941399551
 30
0.0
 40
19.83157032309353
100
AcDbArc
 50
179.8349501568626
 51
180.2814231275571
1001
AcDbBlockRepETag
1070
     1
1071
     1023
1005
233E
  0
LINE
  5
233F
330
8AB
100
AcDbEntity
  8
Layer_0
  6
Continuous
100
AcDbLine
 10
270.2157071658868
 20
22.97090481321935
 30
0.0
 11
270.2158802766882
 21
22.87513894841799
 31
0.0
1001
AcDbBlockRepETag
1070
     1
1071
     1024
1005
233F
  0
ARC
  5
2340
330
8AB
100
AcDbEntity
  8
Layer_0
  6
Continuous
100
AcDbCircle
 10
271.1696340062003
 20
22.88379668841685
 30
0.0
 40
0.9537930242038685
100
AcDbArc
 50
180.5200905875346
 51
188.6884056930341
1001
AcDbBlockRepETag
1070
     1
1071
     1025
1005
2340
  0
ARC
  5
2341
330
8AB
100
AcDbEntity
  8
Layer_0
  6
Continuous
100
AcDbCircle
 10
270.8879533126312
 20
22.84306284777119
 30
0.0
 40
0.6691953777688299
100
AcDbArc
 50
188.88400322045
 51
200.1417989678493
1001
AcDbBlockRepETag
1070
     1
1071
     1026
1005
2341
  0
ARC
  5
2342
330
8AB
100
AcDbEntity
  8
Layer_0
  6
Continuous
100
AcDbCircle
 10
270.8326593965098
 20
22.82952343689566
 30
0.0
 40
0.6126535205328062
100
AcDbArc
 50
200.7336815388734
 51
232.3710740670562
1001
AcDbBlockRepETag
1070
     1
1071
     1027
1005
2342
  0
ARC
  5
2343
330
8AB
100
AcDbEntity
  8
Layer_0
  6
Continuous
100
AcDbCircle
 10
270.7582282719585
 20
22.734233549814
 30
0.0
 40
0.4917427371648037
100
AcDbArc
 50
232.4607100291268
 51
297.2141631514867
1001
AcDbBlockRepETag
1070
     1
1071
     1028
1005
2343
  0
ARC
  5
2344
330
8AB
100
AcDbEntity
  8
Layer_0
  6
Continuous
100
AcDbCircle
 10
270.7709083657659
 20
22.70155061000411
 30
0.0
 40
0.4568935971205892
100
AcDbArc
 50
297.6744016429185
 51
319.5486294378953
1001
AcDbBlockRepETag
1070
     1
1071
     1029
1005
2344
  0
ARC
  5
2345
330
8AB
100
AcDbEntity
  8
Layer_0
  6
Continuous
100
AcDbCircle
 10
270.7101209709922
 20
22.75437873766338
 30
0.0
 40
0.5374257410036061
100
AcDbArc
 50
319.467506620989
 51
332.1602433870558
1001
AcDbBlockRepETag
1070
     1
1071
     1030
1005
2345
  0
ARC
  5
2346
330
8AB
100
AcDbEntity
  8
Layer_0
  6
Continuous
100
AcDbCircle
 10
270.5956618673342
 20
22.81639566122487
 30
0.0
 40
0.6676003842572471
100
AcDbArc
 50
332.0412517099014
 51
341.0522955025567
1001
AcDbBlockRepETag
1070
     1
1071
     1031
1005
2346
  0
ARC
  5
2347
330
8AB
100
AcDbEntity
  8
Layer_0
  6
Continuous
100
AcDbCircle
 10
270.4480249477307
 20
22.86860228975717
 30
0.0
 40
0.8241906582306215
100
AcDbArc
 50
340.952233066021
 51
346.9348208232776
1001
AcDbBlockRepETag
1070
     1
1071
     1032
1005
2347
  0
ARC
  5
2348
330
8AB
100
AcDbEntity
  8
Layer_0
  6
Continuous
100
AcDbCircle
 10
270.1768087287712
 20
22.93105642976286
 30
0.0
 40
1.102504490799063
100
AcDbArc
 50
346.959429973975
 51
353.415880201837
1001
AcDbBlockRepETag
1070
     1
1071
     1033
1005
2348
  0
ARC
  5
2349
330
8AB
100
AcDbEntity
  8
Layer_0
  6
Continuous
100
AcDbCircle
 10
269.8803929190102
 20
22.96720130796722
 30
0.0
 40
1.40111106647141
100
AcDbArc
 50
353.3374099461257
 51
8.060359901865181
1001
AcDbBlockRepETag
1070
     1
1071
     1034
1005
2349
  0
ARC
  5
234A
330
8AB
100
AcDbEntity
  8
Layer_0
  6
Continuous
100
AcDbCircle
 10
270.2433846577985
 20
23.01671789368731
 30
0.0
 40
1.034764017785121
100
AcDbArc
 50
8.163899815758592
 51
14.92231978239156
1001
AcDbBlockRepETag
1070
     1
1071
     1035
1005
234A
  0
ARC
  5
234B
330
8AB
100
AcDbEntity
  8
Layer_0
  6
Continuous
100
AcDbCircle
 10
270.5081583428429
 20
23.08567138685054
 30
0.0
 40
0.7611650277289743
100
AcDbArc
 50
15.0392632005833
 51
23.37770641101888
1001
AcDbBlockRepETag
1070
     1
1071
     1036
1005
234B
  0
ARC
  5
234C
330
8AB
100
AcDbEntity
  8
Layer_0
  6
Continuous
100
AcDbCircle
 10
270.6533958817744
 20
23.14836475772779
 30
0.0
 40
0.6029740262207829
100
AcDbArc
 50
23.38550767112427
 51
35.22589179778407
1001
AcDbBlockRepETag
1070
     1
1071
     1037
1005
234C
  0
ARC
  5
234D
330
8AB
100
AcDbEntity
  8
Layer_0
  6
Continuous
100
AcDbCircle
 10
270.7477365829861
 20
23.21436034039527
 30
0.0
 40
0.4878424949324507
100
AcDbArc
 50
35.28521478678495
 51
53.75603884728777
1001
AcDbBlockRepETag
1070
     1
1071
     1038
1005
234D
  0
ARC
  5
234E
330
8AB
100
AcDbEntity
  8
Layer_0
  6
Continuous
100
AcDbCircle
 10
270.7644571254409
 20
23.23139797758722
 30
0.0
 40
0.4642284659435544
100
AcDbArc
 50
54.17717685884483
 51
83.01952571193004
1001
AcDbBlockRepETag
1070
     1
1071
     1039
1005
234E
  0
ARC
  5
234F
330
8AB
100
AcDbEntity
  8
Layer_0
  6
Continuous
100
AcDbCircle
 10
270.7582388815305
 20
23.21033809949426
 30
0.0
 40
0.4859013809349186
100
AcDbArc
 50
82.59352232688923
 51
127.8552643208382
1001
AcDbBlockRepETag
1070
     1
1071
     1040
1005
234F
  0
ARC
  5
2350
330
8AB
100
AcDbEntity
  8
Layer_0
  6
Continuous
100
AcDbCircle
 10
270.8386310876676
 20
23.1041572352293
 30
0.0
 40
0.6190744033243656
100
AcDbArc
 50
127.6993026702643
 51
171.1767988945913
1001
AcDbBlockRepETag
1070
     1
1071
     1041
1005
2350
  0
ARC
  5
2351
330
8AB
100
AcDbEntity
  8
Layer_0
  6
Continuous
100
AcDbCircle
 10
271.1225225144321
 20
23.05747073738802
 30
0.0
 40
0.9067711096176083
100
AcDbArc
 50
171.0132049168527
 51
180.2330212340836
1001
AcDbBlockRepETag
1070
     1
1071
     1042
1005
2351
  0
ARC
  5
2352
330
8AB
100
AcDbEntity
  8
Layer_0
  6
Continuous
100
AcDbCircle
 10
287.5143673292452
 20
23.00154489543638
 30
0.0
 40
17.29868729880962
100
AcDbArc
 50
179.8269797664061
 51
180.1014844816173
1001
AcDbBlockRepETag
1070
     1
1071
     1043
1005
2352
  0
LINE
  5
2353
330
8AB
100
AcDbEntity
  8
Layer_0
  6
Continuous
100
AcDbLine
 10
272.660685418838
 20
24.36683591052417
 30
0.0
 11
273.6755093486158
 21
24.36683591052417
 31
0.0
1001
AcDbBlockRepETag
1070
     1
1071
     1044
1005
2353
  0
LINE
  5
2354
330
8AB
100
AcDbEntity
  8
Layer_0
  6
Continuous
100
AcDbLine
 10
273.6755093486158
 20
24.36683591052417
 30
0.0
 11
273.6755093486158
 21
23.90172372919084
 31
0.0
1001
AcDbBlockRepETag
1070
     1
1071
     1045
1005
2354
  0
LINE
  5
2355
330
8AB
100
AcDbEntity
  8
Layer_0
  6
Continuous
100
AcDbLine
 10
273.6755093486158
 20
23.90172372919084
 30
0.0
 11
273.7454674816512
 21
23.98858346955728
 31
0.0
1001
AcDbBlockRepETag
1070
     1
1071
     1046
1005
2355
  0
ARC
  5
2356
330
8AB
100
AcDbEntity
  8
Layer_0
  6
Continuous
100
AcDbCircle
 10
274.6701535365359
 20
23.22789010107203
 30
0.0
 40
1.197371580151914
100
AcDbArc
 50
123.3356973853602
 51
140.5575630378801
1001
AcDbBlockRepETag
1070
     1
1071
     1047
1005
2356
  0
ARC
  5
2357
330
8AB
100
AcDbEntity
  8
Layer_0
  6
Continuous
100
AcDbCircle
 10
274.6208569327584
 20
23.27657659283113
 30
0.0
 40
1.129697254456661
100
AcDbArc
 50
103.0663785820881
 51
122.6038066303243
1001
AcDbBlockRepETag
1070
     1
1071
     1048
1005
2357
  0
ARC
  5
2358
330
8AB
100
AcDbEntity
  8
Layer_0
  6
Continuous
100
AcDbCircle
 10
274.6885848209942
 20
23.02099720170747
 30
0.0
 40
1.393995368206707
100
AcDbArc
 50
84.11600276496001
 51
103.4031283724489
1001
AcDbBlockRepETag
1070
     1
1071
     1049
1005
2358
  0
ARC
  5
2359
330
8AB
100
AcDbEntity
  8
Layer_0
  6
Continuous
100
AcDbCircle
 10
274.7196659843027
 20
23.34695231638715
 30
0.0
 40
1.066574200104674
100
AcDbArc
 50
72.51599666452709
 51
83.98182313130842
1001
AcDbBlockRepETag
1070
     1
1071
     1050
1005
2359
  0
ARC
  5
235A
330
8AB
100
AcDbEntity
  8
Layer_0
  6
Continuous
100
AcDbCircle
 10
274.7744310419577
 20
23.54167053066384
 30
0.0
 40
0.8644209221086271
100
AcDbArc
 50
49.99183907562825
 51
72.10066261118462
1001
AcDbBlockRepETag
1070
     1
1071
     1051
1005
235A
  0
ARC
  5
235B
330
8AB
100
AcDbEntity
  8
Layer_0
  6
Continuous
100
AcDbCircle
 10
274.7318458223214
 20
23.48026983532292
 30
0.0
 40
0.9388538929526276
100
AcDbArc
 50
28.75531539487076
 51
50.41024846733355
1001
AcDbBlockRepETag
1070
     1
1071
     1052
1005
235B
  0
ARC
  5
235C
330
8AB
100
AcDbEntity
  8
Layer_0
  6
Continuous
100
AcDbCircle
 10
274.8206529609749
 20
23.53724261552553
 30
0.0
 40
0.8336216666104432
100
AcDbArc
 50
11.51717186501034
 51
28.25875689354619
1001
AcDbBlockRepETag
1070
     1
1071
     1053
1005
235C
  0
ARC
  5
235D
330
8AB
100
AcDbEntity
  8
Layer_0
  6
Continuous
100
AcDbCircle
 10
274.4928350631257
 20
23.46727397876884
 30
0.0
 40
1.168813102231763
100
AcDbArc
 50
0.2426826214097437
 51
11.66948657748157
1001
AcDbBlockRepETag
1070
     1
1071
     1054
1005
235D
  0
ARC
  5
235E
330
8AB
100
AcDbEntity
  8
Layer_0
  6
Continuous
100
AcDbCircle
 10
265.7092275693264
 20
23.38122703575265
 30
0.0
 40
9.952826110488864
100
AcDbArc
 50
359.7081149363341
 51
0.5238561427325202
1001
AcDbBlockRepETag
1070
     1
1071
     1055
1005
235E
  0
LINE
  5
235F
330
8AB
100
AcDbEntity
  8
Layer_0
  6
Continuous
100
AcDbLine
 10
275.6619245299491
 20
23.33052402163525
 30
0.0
 11
275.6619245299491
 21
21.52535857719089
 31
0.0
1001
AcDbBlockRepETag
1070
     1
1071
     1056
1005
235F
  0
LINE
  5
2360
330
8AB
100
AcDbEntity
  8
Layer_0
  6
Continuous
100
AcDbLine
 10
275.6619245299491
 20
21.52535857719089
 30
0.0
 11
274.5664151966159
 21
21.52535857719089
 31
0.0
1001
AcDbBlockRepETag
1070
     1
1071
     1057
1005
2360
  0
LINE
  5
2361
330
8AB
100
AcDbEntity
  8
Layer_0
  6
Continuous
100
AcDbLine
 10
274.5664151966159
 20
21.52535857719089
 30
0.0
 11
274.5664151966159
 21
23.08499299230197
 31
0.0
1001
AcDbBlockRepETag
1070
     1
1071
     1058
1005
2361
  0
LINE
  5
2362
330
8AB
100
AcDbEntity
  8
Layer_0
  6
Continuous
100
AcDbLine
 10
274.5664151966159
 20
23.08499299230197
 30
0.0
 11
274.5660163776574
 21
23.16665851582615
 31
0.0
1001
AcDbBlockRepETag
1070
     1
1071
     1059
1005
2362
  0
ARC
  5
2363
330
8AB
100
AcDbEntity
  8
Layer_0
  6
Continuous
100
AcDbCircle
 10
273.9709926953712
 20
23.15554908163937
 30
0.0
 40
0.595127383010949
100
AcDbArc
 50
1.069620863934632
 51
14.3030219676353
1001
AcDbBlockRepETag
1070
     1
1071
     1060
1005
2363
  0
ARC
  5
2364
330
8AB
100
AcDbEntity
  8
Layer_0
  6
Continuous
100
AcDbCircle
 10
274.2124659373155
 20
23.21460061260983
 30
0.0
 40
0.3465590249130723
100
AcDbArc
 50
14.70558161454321
 51
80.93188643917155
1001
AcDbBlockRepETag
1070
     1
1071
     1061
1005
2364
  0
ARC
  5
2365
330
8AB
100
AcDbEntity
  8
Layer_0
  6
Continuous
100
AcDbCircle
 10
274.1943176378419
 20
23.14145004706983
 30
0.0
 40
0.4217041086271163
100
AcDbArc
 50
80.0633457414038
 51
114.4417591215004
1001
AcDbBlockRepETag
1070
     1
1071
     1062
1005
2365
  0
ARC
  5
2366
330
8AB
100
AcDbEntity
  8
Layer_0
  6
Continuous
100
AcDbCircle
 10
274.1978625242363
 20
23.15504035476863
 30
0.0
 40
0.4108938212799164
100
AcDbArc
 50
115.6759755766453
 51
140.5525011622044
1001
AcDbBlockRepETag
1070
     1
1071
     1063
1005
2366
  0
ARC
  5
2367
330
8AB
100
AcDbEntity
  8
Layer_0
  6
Continuous
100
AcDbCircle
 10
274.2725127874825
 20
23.08776520903722
 30
0.0
 40
0.5113039319720855
100
AcDbArc
 50
140.0460207028284
 51
166.8354106765112
1001
AcDbBlockRepETag
1070
     1
1071
     1064
1005
2367
  0
ARC
  5
2368
330
8AB
100
AcDbEntity
  8
Layer_0
  6
Continuous
100
AcDbCircle
 10
274.642017037082
 20
23.00037549150908
 30
0.0
 40
0.8910009788429674
100
AcDbArc
 50
166.7750390156017
 51
179.4824830770324
1001
AcDbBlockRepETag
1070
     1
1071
     1065
1005
2368
  0
ARC
  5
2369
330
8AB
100
AcDbEntity
  8
Layer_0
  6
Continuous
100
AcDbCircle
 10
278.2278021085903
 20
22.9270505123859
 30
0.0
 40
4.47748918940833
100
AcDbArc
 50
178.9586640767897
 51
180.5080965234377
1001
AcDbBlockRepETag
1070
     1
1071
     1066
1005
2369
  0
LINE
  5
236A
330
8AB
100
AcDbEntity
  8
Layer_0
  6
Continuous
100
AcDbLine
 10
273.7504889743936
 20
22.88734485007978
 30
0.0
 11
273.7504889743936
 21
21.52535857719089
 31
0.0
1001
AcDbBlockRepETag
1070
     1
1071
     1067
1005
236A
  0
LINE
  5
236B
330
8AB
100
AcDbEntity
  8
Layer_0
  6
Continuous
100
AcDbLine
 10
273.7504889743936
 20
21.52535857719089
 30
0.0
 11
272.660685418838
 21
21.52535857719089
 31
0.0
1001
AcDbBlockRepETag
1070
     1
1071
     1068
1005
236B
  0
LINE
  5
236C
330
8AB
100
AcDbEntity
  8
Layer_0
  6
Continuous
100
AcDbLine
 10
272.660685418838
 20
21.52535857719089
 30
0.0
 11
272.660685418838
 21
24.36683591052417
 31
0.0
1001
AcDbBlockRepETag
1070
     1
1071
     1069
1005
236C
  0
LINE
  5
236D
330
8AB
100
AcDbEntity
  8
0
100
AcDbLine
 10
258.5861603245214
 20
22.68907488390607
 30
0.0
 11
258.5861603245214
 21
23.30231971460636
 31
0.0
1001
AcDbBlockRepETag
1070
     1
1071
     1070
1005
236D
  0
LINE
  5
236E
330
8AB
100
AcDbEntity
  8
0
100
AcDbLine
 10
221.4007807079617
 20
23.59727515254018
 30
0.0
 11
223.1288162635173
 21
25.32531070809568
 31
0.0
1001
AcDbBlockRepETag
1070
     1
1071
     1071
1005
236E
  0
LINE
  5
236F
330
8AB
100
AcDbEntity
  8
0
100
AcDbLine
 10
221.4007807079617
 20
24.18415515254014
 30
0.0
 11
223.1288162635173
 21
25.91219070809574
 31
0.0
1001
AcDbBlockRepETag
1070
     1
1071
     1072
1005
236F
  0
ENDBLK
  5
8AD
330
8AB
100
AcDbEntity
  8
0
100
AcDbBlockEnd
  0
BLOCK
  5
B10
330
B0B
100
AcDbEntity
  8
0
100
AcDbBlockBegin
  2
_Closed
 70
     0
 10
0.0
 20
0.0
 30
0.0
  3
_Closed
  1

  0
LINE
  5
B0C
330
B0B
100
AcDbEntity
  8
0
  6
ByBlock
 62
     0
370
    -2
100
AcDbLine
 10
-1.0
 20
0.1666666666666666
 30
0.0
 11
0.0
 21
0.0
 31
0.0
  0
LINE
  5
B0D
330
B0B
100
AcDbEntity
  8
0
  6
ByBlock
 62
     0
370
    -2
100
AcDbLine
 10
0.0
 20
0.0
 30
0.0
 11
-1.0
 21
-0.1666666666666666
 31
0.0
  0
LINE
  5
B0E
330
B0B
100
AcDbEntity
  8
0
  6
ByBlock
 62
     0
370
    -2
100
AcDbLine
 10
-1.0
 20
0.1666666666666666
 30
0.0
 11
-1.0
 21
-0.1666666666666666
 31
0.0
  0
LINE
  5
B0F
330
B0B
100
AcDbEntity
  8
0
  6
ByBlock
 62
     0
370
    -2
100
AcDbLine
 10
0.0
 20
0.0
 30
0.0
 11
-1.0
 21
0.0
 31
0.0
  0
ENDBLK
  5
B11
330
B0B
100
AcDbEntity
  8
0
100
AcDbBlockEnd
  0
BLOCK
  5
BD9
330
BD8
100
AcDbEntity
  8
0
100
AcDbBlockBegin
  2
A4横_kda1
 70
     0
 10
0.0
 20
0.0
 30
0.0
  3
A4横_kda1
  1

  0
INSERT
  5
BDB
102
{ACAD_XDICTIONARY
360
12F7
102
}
330
BD8
100
AcDbEntity
  8
0
100
AcDbBlockReference
  2
A4横（ねじ）
 10
-51.6653563408979
 20
153.8203500987603
 30
0.0
  0
ENDBLK
  5
BDA
330
BD8
100
AcDbEntity
  8
0
100
AcDbBlockEnd
  0
BLOCK
  5
13C8
330
13BC
100
AcDbEntity
  8
0
100
AcDbBlockBegin
  2
*D4
 70
     1
 10
0.0
 20
0.0
 30
0.0
  3
*D4
  1

  0
LINE
  5
1CB9
330
13BC
100
AcDbEntity
  8
Dimension
 62
     0
370
    -2
100
AcDbLine
 10
366.9117431686863
 20
314.4112452601385
 30
0.0
 11
366.9117431686863
 21
325.2612452601385
 31
0.0
  0
LINE
  5
1CBA
330
13BC
100
AcDbEntity
  8
Dimension
 62
     0
370
    -2
100
AcDbLine
 10
376.2117431686862
 20
314.4112452601385
 30
0.0
 11
376.2117431686862
 21
325.2612452601385
 31
0.0
  0
LINE
  5
1CBB
330
13BC
100
AcDbEntity
  8
Dimension
 62
     0
370
    -2
100
AcDbLine
 10
367.7117431686863
 20
324.7612452601385
 30
0.0
 11
375.4117431686862
 21
324.7612452601385
 31
0.0
  0
INSERT
  5
1CBC
330
13BC
100
AcDbEntity
  8
Dimension
 62
     0
370
    -2
100
AcDbBlockReference
  2
_Open30
 10
366.9117431686863
 20
324.7612452601385
 30
0.0
 41
0.8
 42
0.8
 43
0.8
 50
180.0
  0
INSERT
  5
1CBD
330
13BC
100
AcDbEntity
  8
Dimension
 62
     0
370
    -2
100
AcDbBlockReference
  2
_Open30
 10
376.2117431686862
 20
324.7612452601385
 30
0.0
 41
0.8
 42
0.8
 43
0.8
  0
MTEXT
  5
1CBE
330
13BC
100
AcDbEntity
  8
Dimension
 62
     0
100
AcDbMText
 10
371.5617431686862
 20
325.7612452601386
 30
0.0
 40
1.0
 41
0.0
 71
     5
 72
     1
  1
9.3
  7
FontStyle1
 73
     1
 44
1.0
1001
ACAD
1000
MTEXTBEGIN
1070
    73
1070
     1
1070
    44
1040
1.0
1070
    74
1070
     0
1000
MTEXTEND
  0
POINT
  5
1CBF
330
13BC
100
AcDbEntity
  8
Defpoints
 62
     0
100
AcDbPoint
 10
366.9117431686863
 20
313.9112452601385
 30
0.0
  0
POINT
  5
1CC0
330
13BC
100
AcDbEntity
  8
Defpoints
 62
     0
100
AcDbPoint
 10
376.2117431686862
 20
313.9112452601385
 30
0.0
  0
POINT
  5
1CC1
330
13BC
100
AcDbEntity
  8
Defpoints
 62
     0
100
AcDbPoint
 10
376.2117431686862
 20
324.7612452601385
 30
0.0
  0
ENDBLK
  5
13C9
330
13BC
100
AcDbEntity
  8
0
100
AcDbBlockEnd
  0
BLOCK
  5
1430
330
1426
100
AcDbEntity
  8
0
100
AcDbBlockBegin
  2
*D5
 70
     1
 10
0.0
 20
0.0
 30
0.0
  3
*D5
  1

  0
LINE
  5
1446
330
1426
100
AcDbEntity
  8
Dimension
 62
     0
370
    -2
100
AcDbLine
 10
379.0947431686863
 20
315.8362452601385
 30
0.0
 11
379.0947431686863
 21
318.8536891336469
 31
0.0
  0
LINE
  5
1447
330
1426
100
AcDbEntity
  8
Dimension
 62
     0
370
    -2
100
AcDbLine
 10
384.0947431686863
 20
314.9217452601386
 30
0.0
 11
384.0947431686863
 21
318.8536891336469
 31
0.0
  0
LINE
  5
1448
330
1426
100
AcDbEntity
  8
Dimension
 62
     0
370
    -2
100
AcDbLine
 10
379.3947431686863
 20
318.5536891336469
 30
0.0
 11
383.7947431686862
 21
318.5536891336469
 31
0.0
  0
INSERT
  5
1449
330
1426
100
AcDbEntity
  8
Dimension
 62
     0
370
    -2
100
AcDbBlockReference
  2
_Open30
 10
379.0947431686863
 20
318.5536891336469
 30
0.0
 41
0.3
 42
0.3
 43
0.3
 50
180.0
  0
INSERT
  5
144A
330
1426
100
AcDbEntity
  8
Dimension
 62
     0
370
    -2
100
AcDbBlockReference
  2
_Open30
 10
384.0947431686863
 20
318.5536891336469
 30
0.0
 41
0.3
 42
0.3
 43
0.3
  0
MTEXT
  5
144B
330
1426
100
AcDbEntity
  8
Dimension
 62
     0
100
AcDbMText
 10
381.5947431686863
 20
319.2536891336469
 30
0.0
 40
0.8
 41
0.0
 71
     5
 72
     1
  1
5
  7
FontStyle1
 73
     1
 44
1.0
1001
ACAD
1000
MTEXTBEGIN
1070
    73
1070
     1
1070
    44
1040
1.0
1070
    74
1070
     0
1000
MTEXTEND
  0
POINT
  5
144C
330
1426
100
AcDbEntity
  8
Defpoints
 62
     0
100
AcDbPoint
 10
379.0947431686863
 20
315.5362452601385
 30
0.0
  0
POINT
  5
144D
330
1426
100
AcDbEntity
  8
Defpoints
 62
     0
100
AcDbPoint
 10
384.0947431686863
 20
314.6217452601387
 30
0.0
  0
POINT
  5
144E
330
1426
100
AcDbEntity
  8
Defpoints
 62
     0
100
AcDbPoint
 10
384.0947431686863
 20
318.5536891336469
 30
0.0
  0
ENDBLK
  5
1431
330
1426
100
AcDbEntity
  8
0
100
AcDbBlockEnd
  0
BLOCK
  5
145A
330
1450
100
AcDbEntity
  8
0
100
AcDbBlockBegin
  2
*D6
 70
     1
 10
0.0
 20
0.0
 30
0.0
  3
*D6
  1

  0
LINE
  5
1CD4
330
1450
100
AcDbEntity
  8
Dimension
 62
     0
370
    -2
100
AcDbLine
 10
391.469079596397
 20
319.0612452601384
 30
0.0
 11
391.469079596397
 21
325.2612452601385
 31
0.0
  0
LINE
  5
1CD5
330
1450
100
AcDbEntity
  8
Dimension
 62
     0
370
    -2
100
AcDbLine
 10
411.469079596397
 20
316.4782452601385
 30
0.0
 11
411.469079596397
 21
325.2612452601385
 31
0.0
  0
LINE
  5
1CD6
330
1450
100
AcDbEntity
  8
Dimension
 62
     0
370
    -2
100
AcDbLine
 10
392.2690795963971
 20
324.7612452601385
 30
0.0
 11
410.6690795963968
 21
324.7612452601385
 31
0.0
  0
INSERT
  5
1CD7
330
1450
100
AcDbEntity
  8
Dimension
 62
     0
370
    -2
100
AcDbBlockReference
  2
_Open30
 10
391.469079596397
 20
324.7612452601385
 30
0.0
 41
0.8
 42
0.8
 43
0.8
 50
180.0
  0
INSERT
  5
1CD8
330
1450
100
AcDbEntity
  8
Dimension
 62
     0
370
    -2
100
AcDbBlockReference
  2
_Open30
 10
411.469079596397
 20
324.7612452601385
 30
0.0
 41
0.8
 42
0.8
 43
0.8
  0
MTEXT
  5
1CD9
330
1450
100
AcDbEntity
  8
Dimension
 62
     0
100
AcDbMText
 10
401.469079596397
 20
325.7612452601386
 30
0.0
 40
1.0
 41
0.0
 71
     5
 72
     1
  1
20
  7
FontStyle1
 73
     1
 44
1.0
1001
ACAD
1000
MTEXTBEGIN
1070
    73
1070
     1
1070
    44
1040
1.0
1070
    74
1070
     0
1000
MTEXTEND
  0
POINT
  5
1CDA
330
1450
100
AcDbEntity
  8
Defpoints
 62
     0
100
AcDbPoint
 10
391.469079596397
 20
318.5612452601384
 30
0.0
  0
POINT
  5
1CDB
330
1450
100
AcDbEntity
  8
Defpoints
 62
     0
100
AcDbPoint
 10
411.469079596397
 20
315.9782452601385
 30
0.0
  0
POINT
  5
1CDC
330
1450
100
AcDbEntity
  8
Defpoints
 62
     0
100
AcDbPoint
 10
411.469079596397
 20
324.7612452601385
 30
0.0
  0
ENDBLK
  5
145B
330
1450
100
AcDbEntity
  8
0
100
AcDbBlockEnd
  0
BLOCK
  5
1472
330
1468
100
AcDbEntity
  8
0
100
AcDbBlockBegin
  2
*D7
 70
     1
 10
0.0
 20
0.0
 30
0.0
  3
*D7
  1

  0
LINE
  5
1BB8
330
1468
100
AcDbEntity
  8
Dimension
 62
     0
370
    -2
100
AcDbLine
 10
396.469079596397
 20
316.9112452601384
 30
0.0
 11
396.469079596397
 21
321.0862452601385
 31
0.0
  0
LINE
  5
1BB9
330
1468
100
AcDbEntity
  8
Dimension
 62
     0
370
    -2
100
AcDbLine
 10
411.469079596397
 20
316.4782452601385
 30
0.0
 11
411.469079596397
 21
321.0862452601385
 31
0.0
  0
LINE
  5
1BBA
330
1468
100
AcDbEntity
  8
Dimension
 62
     0
370
    -2
100
AcDbLine
 10
397.269079596397
 20
320.5862452601385
 30
0.0
 11
410.6690795963968
 21
320.5862452601385
 31
0.0
  0
INSERT
  5
1BBB
330
1468
100
AcDbEntity
  8
Dimension
 62
     0
370
    -2
100
AcDbBlockReference
  2
_Open30
 10
396.469079596397
 20
320.5862452601385
 30
0.0
 41
0.8
 42
0.8
 43
0.8
 50
180.0
  0
INSERT
  5
1BBC
330
1468
100
AcDbEntity
  8
Dimension
 62
     0
370
    -2
100
AcDbBlockReference
  2
_Open30
 10
411.469079596397
 20
320.5862452601385
 30
0.0
 41
0.8
 42
0.8
 43
0.8
  0
MTEXT
  5
1BBD
330
1468
100
AcDbEntity
  8
Dimension
 62
     0
100
AcDbMText
 10
403.969079596397
 20
321.5862452601385
 30
0.0
 40
1.0
 41
0.0
 71
     5
 72
     1
  1
15
  7
FontStyle1
 73
     1
 44
1.0
1001
ACAD
1000
MTEXTBEGIN
1070
    73
1070
     1
1070
    44
1040
1.0
1070
    74
1070
     0
1000
MTEXTEND
  0
POINT
  5
1BBE
330
1468
100
AcDbEntity
  8
Defpoints
 62
     0
100
AcDbPoint
 10
396.469079596397
 20
316.4112452601383
 30
0.0
  0
POINT
  5
1BBF
330
1468
100
AcDbEntity
  8
Defpoints
 62
     0
100
AcDbPoint
 10
411.469079596397
 20
315.9782452601385
 30
0.0
  0
POINT
  5
1BC0
330
1468
100
AcDbEntity
  8
Defpoints
 62
     0
100
AcDbPoint
 10
411.469079596397
 20
320.5862452601385
 30
0.0
  0
ENDBLK
  5
1473
330
1468
100
AcDbEntity
  8
0
100
AcDbBlockEnd
  0
BLOCK
  5
148B
330
1480
100
AcDbEntity
  8
0
100
AcDbBlockBegin
  2
*D8
 70
     1
 10
0.0
 20
0.0
 30
0.0
  3
*D8
  1

  0
LINE
  5
1BF4
330
1480
100
AcDbEntity
  8
Dimension
 62
     0
370
    -2
100
AcDbLine
 10
411.536079596397
 20
316.4112452601385
 30
0.0
 11
418.2065821496554
 21
316.4112452601385
 31
0.0
  0
LINE
  5
1BF5
330
1480
100
AcDbEntity
  8
Dimension
 62
     0
370
    -2
100
AcDbLine
 10
411.536079596397
 20
311.4112452601385
 30
0.0
 11
418.2065821496554
 21
311.4112452601385
 31
0.0
  0
LINE
  5
1BF6
330
1480
100
AcDbEntity
  8
Dimension
 62
     0
370
    -2
100
AcDbLine
 10
417.7065821496555
 20
315.6112452601385
 30
0.0
 11
417.7065821496555
 21
312.2112452601385
 31
0.0
  0
INSERT
  5
1BF7
330
1480
100
AcDbEntity
  8
Dimension
 62
     0
370
    -2
100
AcDbBlockReference
  2
_Open30
 10
417.7065821496555
 20
316.4112452601385
 30
0.0
 41
0.8
 42
0.8
 43
0.8
 50
90.0
  0
INSERT
  5
1BF8
330
1480
100
AcDbEntity
  8
Dimension
 62
     0
370
    -2
100
AcDbBlockReference
  2
_Open30
 10
417.7065821496555
 20
311.4112452601385
 30
0.0
 41
0.8
 42
0.8
 43
0.8
 50
270.0
  0
MTEXT
  5
1BF9
330
1480
100
AcDbEntity
  8
Dimension
 62
     0
100
AcDbMText
 10
416.7065821496554
 20
313.9112452601385
 30
0.0
 40
1.0
 41
0.0
 71
     5
 72
     1
  1
%%C5
  7
FontStyle1
 11
0.0000000000000001
 21
1.0
 31
0.0
 73
     1
 44
1.0
1001
ACAD
1000
MTEXTBEGIN
1070
    73
1070
     1
1070
    44
1040
1.0
1070
    74
1070
     0
1000
MTEXTEND
  0
POINT
  5
1BFA
330
1480
100
AcDbEntity
  8
Defpoints
 62
     0
100
AcDbPoint
 10
411.036079596397
 20
316.4112452601385
 30
0.0
  0
POINT
  5
1BFB
330
1480
100
AcDbEntity
  8
Defpoints
 62
     0
100
AcDbPoint
 10
411.036079596397
 20
311.4112452601385
 30
0.0
  0
POINT
  5
1BFC
330
1480
100
AcDbEntity
  8
Defpoints
 62
     0
100
AcDbPoint
 10
417.7065821496555
 20
311.4112452601385
 30
0.0
  0
ENDBLK
  5
148C
330
1480
100
AcDbEntity
  8
0
100
AcDbBlockEnd
  0
BLOCK
  5
16FA
330
16EF
100
AcDbEntity
  8
0
100
AcDbBlockBegin
  2
*D9
 70
     1
 10
0.0
 20
0.0
 30
0.0
  3
*D9
  1

  0
LINE
  5
16FD
330
16EF
100
AcDbEntity
  8
Center
 62
     0
370
    -2
100
AcDbLine
 10
374.2367431686862
 20
313.6112452601385
 30
0.0
 11
374.2367431686862
 21
309.9513449533735
 31
0.0
  0
LINE
  5
16FE
330
16EF
100
AcDbEntity
  8
Center
 62
     0
370
    -2
100
AcDbLine
 10
375.5742431686862
 20
313.6112452601385
 30
0.0
 11
375.5742431686862
 21
309.9513449533735
 31
0.0
  0
LINE
  5
16FF
330
16EF
100
AcDbEntity
  8
Center
 62
     0
370
    -2
100
AcDbLine
 10
374.5367431686863
 20
310.2513449533736
 30
0.0
 11
375.2742431686862
 21
310.2513449533736
 31
0.0
  0
LINE
  5
1700
330
16EF
100
AcDbEntity
  8
Center
 62
     0
370
    -2
100
AcDbLine
 10
375.5742431686862
 20
310.2513449533736
 30
0.0
 11
378.7980526924958
 21
310.2513449533736
 31
0.0
  0
INSERT
  5
1701
330
16EF
100
AcDbEntity
  8
Center
 62
     0
370
    -2
100
AcDbBlockReference
  2
_Open30
 10
374.2367431686862
 20
310.2513449533736
 30
0.0
 41
0.3
 42
0.3
 43
0.3
 50
180.0
  0
INSERT
  5
1702
330
16EF
100
AcDbEntity
  8
Center
 62
     0
370
    -2
100
AcDbBlockReference
  2
_Open30
 10
375.5742431686862
 20
310.2513449533736
 30
0.0
 41
0.3
 42
0.3
 43
0.3
  0
MTEXT
  5
1703
330
16EF
100
AcDbEntity
  8
Center
 62
     0
100
AcDbMText
 10
377.336147930591
 20
310.9513449533736
 30
0.0
 40
0.8
 41
0.0
 71
     5
 72
     1
  1
1.34
  7
FontStyle1
 73
     1
 44
1.0
1001
ACAD
1000
MTEXTBEGIN
1070
    73
1070
     1
1070
    44
1040
1.0
1070
    74
1070
     0
1000
MTEXTEND
  0
POINT
  5
1704
330
16EF
100
AcDbEntity
  8
Defpoints
 62
     0
100
AcDbPoint
 10
374.2367431686862
 20
313.9112452601385
 30
0.0
  0
POINT
  5
1705
330
16EF
100
AcDbEntity
  8
Defpoints
 62
     0
100
AcDbPoint
 10
375.5742431686862
 20
313.9112452601385
 30
0.0
  0
POINT
  5
1706
330
16EF
100
AcDbEntity
  8
Defpoints
 62
     0
100
AcDbPoint
 10
375.5742431686862
 20
310.2513449533736
 30
0.0
  0
ENDBLK
  5
16FB
330
16EF
100
AcDbEntity
  8
0
100
AcDbBlockEnd
  0
BLOCK
  5
19D6
330
19CA
100
AcDbEntity
  8
0
100
AcDbBlockBegin
  2
*D10
 70
     1
 10
0.0
 20
0.0
 30
0.0
  3
*D10
  1

  0
LINE
  5
1A6C
330
19CA
100
AcDbEntity
  8
Dimension
 62
     0
370
    -2
100
AcDbLine
 10
389.0655262058039
 20
318.8147986507318
 30
0.0
 11
385.168084881724
 21
322.7122399748116
 31
0.0
  0
LINE
  5
1A6D
330
19CA
100
AcDbEntity
  8
Dimension
 62
     0
370
    -2
100
AcDbLine
 10
389.0655262058039
 20
309.0076918695452
 30
0.0
 11
385.1680848817241
 21
305.1102505454654
 31
0.0
  0
ARC
  5
1A6E
330
19CA
100
AcDbEntity
  8
Dimension
 62
     0
370
    -2
100
AcDbCircle
 10
393.9690795963969
 20
313.9112452601385
 30
0.0
 40
11.94648608786449
100
AcDbArc
 50
138.8375462103775
 51
221.1624537896226
  0
INSERT
  5
1A6F
330
19CA
100
AcDbEntity
  8
Dimension
 62
     0
370
    -2
100
AcDbBlockReference
  2
_Open30
 10
385.5216382723173
 20
322.3586865842183
 30
0.0
 41
0.8
 42
0.8
 43
0.8
 50
46.91877310518838
  0
INSERT
  5
1A70
330
19CA
100
AcDbEntity
  8
Dimension
 62
     0
370
    -2
100
AcDbBlockReference
  2
_Open30
 10
385.5216382723174
 20
305.4638039360586
 30
0.0
 41
0.8
 42
0.8
 43
0.8
 50
313.0812268948117
  0
MTEXT
  5
1A71
330
19CA
100
AcDbEntity
  8
Dimension
 62
     0
100
AcDbMText
 10
381.0225935085324
 20
313.9112452601386
 30
0.0
 40
1.0
 41
0.0
 71
     5
 72
     1
  1
90°
  7
FontStyle1
 11
0.0000000000000001
 21
1.0
 31
0.0
 73
     1
 44
1.0
1001
ACAD
1000
MTEXTBEGIN
1070
    73
1070
     1
1070
    44
1040
1.0
1070
    74
1070
     0
1000
MTEXTEND
  0
POINT
  5
1A72
330
19CA
100
AcDbEntity
  8
Defpoints
 62
     0
100
AcDbPoint
 10
382.4296601507256
 20
317.0032233817303
 30
0.0
  0
POINT
  5
1A73
330
19CA
100
AcDbEntity
  8
Defpoints
 62
     0
100
AcDbPoint
 10
389.4190795963971
 20
318.4612452601385
 30
0.0
  0
POINT
  5
1A74
330
19CA
100
AcDbEntity
  8
Defpoints
 62
     0
100
AcDbPoint
 10
389.4190795963971
 20
309.3612452601385
 30
0.0
  0
POINT
  5
1A75
330
19CA
100
AcDbEntity
  8
Defpoints
 62
     0
100
AcDbPoint
 10
391.469079596397
 20
311.4112452601385
 30
0.0
  0
POINT
  5
1A76
330
19CA
100
AcDbEntity
  8
Defpoints
 62
     0
100
AcDbPoint
 10
391.469079596397
 20
316.4112452601385
 30
0.0
  0
ENDBLK
  5
19D7
330
19CA
100
AcDbEntity
  8
0
100
AcDbBlockEnd
  0
BLOCK
  5
1BD5
330
1BCB
100
AcDbEntity
  8
0
100
AcDbBlockBegin
  2
*D11
 70
     1
 10
0.0
 20
0.0
 30
0.0
  3
*D11
  1

  0
LINE
  5
1CCB
330
1BCB
100
AcDbEntity
  8
Dimension
 62
     0
370
    -2
100
AcDbLine
 10
387.869079596397
 20
314.4112452601385
 30
0.0
 11
387.869079596397
 21
325.2612452601385
 31
0.0
  0
LINE
  5
1CCC
330
1BCB
100
AcDbEntity
  8
Dimension
 62
     0
370
    -2
100
AcDbLine
 10
391.469079596397
 20
319.0612452601384
 30
0.0
 11
391.469079596397
 21
325.2612452601385
 31
0.0
  0
LINE
  5
1CCD
330
1BCB
100
AcDbEntity
  8
Dimension
 62
     0
370
    -2
100
AcDbLine
 10
388.6690795963971
 20
324.7612452601385
 30
0.0
 11
390.6690795963968
 21
324.7612452601385
 31
0.0
  0
INSERT
  5
1CCE
330
1BCB
100
AcDbEntity
  8
Dimension
 62
     0
370
    -2
100
AcDbBlockReference
  2
_Open30
 10
387.869079596397
 20
324.7612452601385
 30
0.0
 41
0.8
 42
0.8
 43
0.8
 50
180.0
  0
INSERT
  5
1CCF
330
1BCB
100
AcDbEntity
  8
Dimension
 62
     0
370
    -2
100
AcDbBlockReference
  2
_Open30
 10
391.469079596397
 20
324.7612452601385
 30
0.0
 41
0.8
 42
0.8
 43
0.8
  0
MTEXT
  5
1CD0
330
1BCB
100
AcDbEntity
  8
Dimension
 62
     0
100
AcDbMText
 10
389.669079596397
 20
325.7612452601386
 30
0.0
 40
1.0
 41
0.0
 71
     5
 72
     1
  1
3.6
  7
FontStyle1
 73
     1
 44
1.0
1001
ACAD
1000
MTEXTBEGIN
1070
    73
1070
     1
1070
    44
1040
1.0
1070
    74
1070
     0
1000
MTEXTEND
  0
POINT
  5
1CD1
330
1BCB
100
AcDbEntity
  8
Defpoints
 62
     0
100
AcDbPoint
 10
387.869079596397
 20
313.9112452601385
 30
0.0
  0
POINT
  5
1CD2
330
1BCB
100
AcDbEntity
  8
Defpoints
 62
     0
100
AcDbPoint
 10
391.469079596397
 20
318.5612452601384
 30
0.0
  0
POINT
  5
1CD3
330
1BCB
100
AcDbEntity
  8
Defpoints
 62
     0
100
AcDbPoint
 10
391.469079596397
 20
324.7612452601385
 30
0.0
  0
ENDBLK
  5
1BD6
330
1BCB
100
AcDbEntity
  8
0
100
AcDbBlockEnd
  0
ENDSEC
  0
SECTION
  2
ENTITIES
  0
DIMENSION
  5
13BB
330
1F
100
AcDbEntity
  8
Dimension
100
AcDbDimension
  2
*D4
 10
376.2117431686862
 20
324.7612452601385
 30
0.0
 11
371.5617431686862
 21
324.7612452601385
 31
0.0
 70
   160
 71
     5
 42
9.299999999999952
  3
DimStyle1
100
AcDbAlignedDimension
 13
366.9117431686863
 23
313.9112452601385
 33
0.0
 14
376.2117431686862
 24
313.9112452601385
 34
0.0
100
AcDbRotatedDimension
  0
DIMENSION
  5
144F
330
1F
100
AcDbEntity
  8
Dimension
100
AcDbDimension
  2
*D6
 10
411.469079596397
 20
324.7612452601385
 30
0.0
 11
401.469079596397
 21
324.7612452601385
 31
0.0
 70
   160
 71
     5
 42
20.00000000000006
  3
DimStyle1
100
AcDbAlignedDimension
 13
391.469079596397
 23
318.5612452601384
 33
0.0
 14
411.469079596397
 24
315.9782452601385
 34
0.0
100
AcDbRotatedDimension
  0
DIMENSION
  5
1467
330
1F
100
AcDbEntity
  8
Dimension
100
AcDbDimension
  2
*D7
 10
411.469079596397
 20
320.5862452601385
 30
0.0
 11
403.969079596397
 21
320.5862452601385
 31
0.0
 70
   160
 71
     5
 42
15.0
  3
DimStyle1
100
AcDbAlignedDimension
 13
396.469079596397
 23
316.4112452601383
 33
0.0
 14
411.469079596397
 24
315.9782452601385
 34
0.0
100
AcDbRotatedDimension
  0
LINE
  5
1519
330
1F
100
AcDbEntity
  8
Center
 48
4.0
100
AcDbLine
 10
371.5617431686862
 20
320.7362452601385
 30
0.0
 11
371.5617431686862
 21
307.0862452601385
 31
0.0
  0
LINE
  5
151A
330
1F
100
AcDbEntity
  8
Center
 48
4.0
100
AcDbLine
 10
364.7367431686863
 20
313.9112452601385
 30
0.0
 11
378.3867431686862
 21
313.9112452601385
 31
0.0
  0
LINE
  5
151D
330
1F
100
AcDbEntity
  8
Center
 48
4.0
100
AcDbLine
 10
384.9190795963971
 20
313.9112452601385
 30
0.0
 11
415.1700870749303
 21
313.9112452601385
 31
0.0
  0
LEADER
  5
1776
330
1F
100
AcDbEntity
  8
Dimension
100
AcDbLeader
  3
DimStyle1
 73
     0
 40
1.0
 41
1.809523809523809
 76
     3
 10
403.7966251971353
 20
311.3636006343174
 30
0.0
 10
407.9714430484655
 20
307.1887827829869
 30
0.0
 10
409.9900833315715
 20
307.1887827829869
 30
0.0
340
1777
213
-0.0625719537016485
223
-0.6187126185769439
233
0.0
1001
ACAD
1000
DSTYLE
1002
{
1070
   147
1040
0.3
1070
    77
1070
     0
1002
}
  0
MTEXT
  5
1777
102
{ACAD_REACTORS
330
1776
102
}
330
1F
100
AcDbEntity
  8
Dimension
100
AcDbMText
 10
410.3526552852732
 20
307.8074954015638
 30
0.0
 40
1.0
 41
1.733068757134674
 71
     1
 72
     1
  1
M5
  7
FontStyle1
 73
     1
 44
1.0
1001
ACAD
1000
MTEXTBEGIN
1070
    73
1070
     1
1070
    44
1040
1.0
1070
    74
1070
     0
1000
MTEXTEND
  0
DIMENSION
  5
1BCA
330
1F
100
AcDbEntity
  8
Dimension
100
AcDbDimension
  2
*D11
 10
391.469079596397
 20
324.7612452601385
 30
0.0
 11
389.669079596397
 21
325.7612452601386
 31
0.0
 70
    32
 71
     5
 42
3.599999999999908
  3
DimStyle1
100
AcDbAlignedDimension
 13
387.869079596397
 23
313.9112452601385
 33
0.0
 14
391.469079596397
 24
318.5612452601384
 34
0.0
100
AcDbRotatedDimension
  0
ARC
  5
1C7C
330
1F
100
AcDbEntity
  8
OutlineB
100
AcDbCircle
 10
391.819079596397
 20
316.7612452601382
 30
0.0
 40
0.35
100
AcDbArc
 50
180.0
 51
270.0
  0
LINE
  5
1C7D
330
1F
100
AcDbEntity
  8
OutlineB
100
AcDbLine
 10
411.469079596397
 20
315.9782452601385
 30
0.0
 11
411.469079596397
 21
311.8442452601385
 31
0.0
  0
LINE
  5
1C7E
330
1F
100
AcDbEntity
  8
OutlineN
100
AcDbLine
 10
396.4690795963971
 20
316.4112452601385
 30
0.0
 11
396.4690795963971
 21
311.4112452601385
 31
0.0
  0
LINE
  5
1C7F
330
1F
100
AcDbEntity
  8
OutlineN
100
AcDbLine
 10
411.0360795963971
 20
316.4112452601385
 30
0.0
 11
411.0360795963971
 21
311.4112452601385
 31
0.0
  0
LINE
  5
1C80
330
1F
100
AcDbEntity
  8
OutlineB
100
AcDbLine
 10
391.819079596397
 20
316.4112452601383
 30
0.0
 11
411.0360795963971
 21
316.4112452601385
 31
0.0
  0
LINE
  5
1C81
330
1F
100
AcDbEntity
  8
OutlineN
100
AcDbLine
 10
396.4690795963971
 20
315.9782452601385
 30
0.0
 11
411.469079596397
 21
315.9782452601385
 31
0.0
  0
LINE
  5
1C82
330
1F
100
AcDbEntity
  8
OutlineB
100
AcDbLine
 10
391.819079596397
 20
311.4112452601385
 30
0.0
 11
411.0360795963971
 21
311.4112452601385
 31
0.0
  0
LINE
  5
1C83
330
1F
100
AcDbEntity
  8
OutlineN
100
AcDbLine
 10
396.4690795963971
 20
311.8442452601385
 30
0.0
 11
411.469079596397
 21
311.8442452601387
 31
0.0
  0
LINE
  5
1C84
330
1F
100
AcDbEntity
  8
OutlineB
100
AcDbLine
 10
411.469079596397
 20
315.9782452601385
 30
0.0
 11
411.0360795963971
 21
316.4112452601385
 31
0.0
  0
LINE
  5
1C85
330
1F
100
AcDbEntity
  8
OutlineB
100
AcDbLine
 10
411.469079596397
 20
311.8442452601385
 30
0.0
 11
411.0360795963971
 21
311.4112452601385
 31
0.0
  0
LINE
  5
1C86
330
1F
100
AcDbEntity
  8
OutlineN
100
AcDbLine
 10
396.4690795963971
 20
315.9782452601385
 30
0.0
 11
396.0360795963971
 21
316.4112452601385
 31
0.0
  0
LINE
  5
1C87
330
1F
100
AcDbEntity
  8
OutlineN
100
AcDbLine
 10
396.4690795963971
 20
311.8442452601385
 30
0.0
 11
396.0360795963971
 21
311.4112452601385
 31
0.0
  0
ARC
  5
1C88
330
1F
100
AcDbEntity
  8
OutlineB
100
AcDbCircle
 10
391.819079596397
 20
311.0612452601386
 30
0.0
 40
0.35
100
AcDbArc
 50
90.0
 51
180.0
  0
LINE
  5
1C89
330
1F
100
AcDbEntity
  8
OutlineB
100
AcDbLine
 10
391.469079596397
 20
318.5612452601384
 30
0.0
 11
391.4690795963971
 21
309.2612452601384
 31
0.0
  0
LINE
  5
1C8A
330
1F
100
AcDbEntity
  8
OutlineB
100
AcDbLine
 10
391.469079596397
 20
318.5612452601386
 30
0.0
 11
389.7202072851448
 21
318.40823875895
 31
0.0
  0
LINE
  5
1C8B
330
1F
100
AcDbEntity
  8
OutlineB
100
AcDbLine
 10
391.4690795963971
 20
309.2612452601384
 30
0.0
 11
389.720207285145
 21
309.4142517613271
 31
0.0
  0
ARC
  5
1C8C
330
1F
100
AcDbEntity
  8
OutlineB
100
AcDbCircle
 10
395.869079596397
 20
313.9112452601387
 30
0.0
 40
8.0
100
AcDbArc
 50
149.9924499656093
 51
210.0075500343907
  0
ARC
  5
1C8D
330
1F
100
AcDbEntity
  8
OutlineB
100
AcDbCircle
 10
389.8073630278927
 20
310.4104464594191
 30
0.0
 40
1.0
100
AcDbArc
 50
210.0075500343907
 51
265.0000000000003
  0
ARC
  5
1C8E
330
1F
100
AcDbEntity
  8
OutlineB
100
AcDbCircle
 10
389.8073630278925
 20
317.4120440608579
 30
0.0
 40
1.0
100
AcDbArc
 50
94.99999999999976
 51
149.9924499656093
  0
CIRCLE
  5
1C8F
330
1F
100
AcDbEntity
  8
OutlineB
100
AcDbCircle
 10
371.5617431686862
 20
313.9112452601385
 30
0.0
 40
4.65
  0
ARC
  5
1C90
330
1F
100
AcDbEntity
  8
OutlineN
100
AcDbCircle
 10
371.5617431686862
 20
313.9112452601385
 30
0.0
 40
2.20001948620024
100
AcDbArc
 50
265.2474657628471
 51
274.7617746867516
  0
ARC
  5
1C91
330
1F
100
AcDbEntity
  8
OutlineN
100
AcDbCircle
 10
371.3876587330777
 20
311.8173271197173
 30
0.0
 40
0.0988772802786625
100
AcDbArc
 50
180.9999999999757
 51
265.2474657628403
  0
ARC
  5
1C92
330
1F
100
AcDbEntity
  8
OutlineN
100
AcDbCircle
 10
371.7361653013362
 20
311.8173552226372
 30
0.0
 40
0.0988772802786625
100
AcDbArc
 50
274.7617746867647
 51
358.7790411291897
  0
ARC
  5
1C93
330
1F
100
AcDbEntity
  8
OutlineN
100
AcDbCircle
 10
371.5617431686862
 20
313.9112452601385
 30
0.0
 40
2.20001948620024
100
AcDbArc
 50
355.2474657628471
 51
4.761774686745166
  0
ARC
  5
1C94
330
1F
100
AcDbEntity
  8
OutlineN
100
AcDbCircle
 10
373.6556613091071
 20
313.7371608245299
 30
0.0
 40
0.0988772802786625
100
AcDbArc
 50
270.9999999999757
 51
355.2474657628732
  0
ARC
  5
1C95
330
1F
100
AcDbEntity
  8
OutlineN
100
AcDbCircle
 10
373.6556332061873
 20
314.0856673927884
 30
0.0
 40
0.0988772802786625
100
AcDbArc
 50
4.761774686731913
 51
88.77904112912457
  0
ARC
  5
1C96
330
1F
100
AcDbEntity
  8
OutlineN
100
AcDbCircle
 10
371.5617431686862
 20
313.9112452601385
 30
0.0
 40
2.20001948620024
100
AcDbArc
 50
85.24746576284714
 51
94.76177468674514
  0
ARC
  5
1C97
330
1F
100
AcDbEntity
  8
OutlineN
100
AcDbCircle
 10
371.7358276042947
 20
316.0051634005593
 30
0.0
 40
0.0988772802786625
100
AcDbArc
 50
0.9999999999757104
 51
85.24746576284037
  0
ARC
  5
1C98
330
1F
100
AcDbEntity
  8
OutlineN
100
AcDbCircle
 10
371.3873210360365
 20
316.0051352976396
 30
0.0
 40
0.0988772802786625
100
AcDbArc
 50
94.7617746867319
 51
178.7790411291245
  0
ARC
  5
1C99
330
1F
100
AcDbEntity
  8
OutlineN
100
AcDbCircle
 10
371.5617431686862
 20
313.9112452601385
 30
0.0
 40
2.20001948620024
100
AcDbArc
 50
175.2474657628471
 51
184.7617746867451
  0
ARC
  5
1C9A
330
1F
100
AcDbEntity
  8
OutlineN
100
AcDbCircle
 10
369.4678250282653
 20
314.0853296957469
 30
0.0
 40
0.0988772802786625
100
AcDbArc
 50
90.99999999994315
 51
175.2474657628731
  0
ARC
  5
1C9B
330
1F
100
AcDbEntity
  8
OutlineN
100
AcDbCircle
 10
369.4678531311851
 20
313.7368231274881
 30
0.0
 40
0.0988772802786625
100
AcDbArc
 50
184.7617746867319
 51
268.7790411291571
  0
LINE
  5
1C9C
330
1F
100
AcDbEntity
  8
OutlineN
100
AcDbLine
 10
372.170019288582
 20
314.5195213800342
 30
0.0
 11
371.8515815182665
 21
315.0391645927687
 31
0.0
  0
LINE
  5
1C9D
330
1F
100
AcDbEntity
  8
OutlineN
100
AcDbLine
 10
371.8346898250845
 20
316.0068890470421
 30
0.0
 11
371.8515815182665
 21
315.0391645927689
 31
0.0
  0
LINE
  5
1C9E
330
1F
100
AcDbEntity
  8
OutlineN
100
AcDbLine
 10
373.6577400970741
 20
314.1845222235559
 30
0.0
 11
372.6827794670535
 21
314.20530153854
 31
0.0
  0
LINE
  5
1C9F
330
1F
100
AcDbEntity
  8
OutlineN
100
AcDbLine
 10
372.170019288582
 20
314.5195213800342
 30
0.0
 11
372.6827794670535
 21
314.20530153854
 31
0.0
  0
LINE
  5
1CA0
330
1F
100
AcDbEntity
  8
OutlineN
100
AcDbLine
 10
370.9534670487903
 20
314.5195213800342
 30
0.0
 11
370.4338238360556
 21
314.2010836097189
 31
0.0
  0
LINE
  5
1CA1
330
1F
100
AcDbEntity
  8
OutlineN
100
AcDbLine
 10
369.4660993817826
 20
314.1841919165368
 30
0.0
 11
370.4338238360555
 21
314.2010836097189
 31
0.0
  0
LINE
  5
1CA2
330
1F
100
AcDbEntity
  8
OutlineN
100
AcDbLine
 10
371.2884662052687
 20
316.0072421885264
 30
0.0
 11
371.2676868902845
 21
315.0322815585058
 31
0.0
  0
LINE
  5
1CA3
330
1F
100
AcDbEntity
  8
OutlineN
100
AcDbLine
 10
370.9534670487903
 20
314.5195213800342
 30
0.0
 11
371.2676868902845
 21
315.0322815585058
 31
0.0
  0
LINE
  5
1CA4
330
1F
100
AcDbEntity
  8
OutlineN
100
AcDbLine
 10
370.9534670487903
 20
313.3029691402426
 30
0.0
 11
371.2719048191059
 21
312.7833259275079
 31
0.0
  0
LINE
  5
1CA5
330
1F
100
AcDbEntity
  8
OutlineN
100
AcDbLine
 10
371.2887965122878
 20
311.8156014732347
 30
0.0
 11
371.2719048191059
 21
312.7833259275076
 31
0.0
  0
LINE
  5
1CA6
330
1F
100
AcDbEntity
  8
OutlineN
100
AcDbLine
 10
369.4657462402984
 20
313.6379682967209
 30
0.0
 11
370.440706870319
 21
313.6171889817366
 31
0.0
  0
LINE
  5
1CA7
330
1F
100
AcDbEntity
  8
OutlineN
100
AcDbLine
 10
370.9534670487903
 20
313.3029691402426
 30
0.0
 11
370.440706870319
 21
313.6171889817366
 31
0.0
  0
LINE
  5
1CA8
330
1F
100
AcDbEntity
  8
OutlineN
100
AcDbLine
 10
372.170019288582
 20
313.3029691402426
 30
0.0
 11
372.6896625013168
 21
313.6214069105581
 31
0.0
  0
LINE
  5
1CA9
330
1F
100
AcDbEntity
  8
OutlineN
100
AcDbLine
 10
373.6573869555899
 20
313.63829860374
 30
0.0
 11
372.6896625013168
 21
313.6214069105581
 31
0.0
  0
LINE
  5
1CAA
330
1F
100
AcDbEntity
  8
OutlineN
100
AcDbLine
 10
371.8350201321036
 20
311.8152483317506
 30
0.0
 11
371.8557994470879
 21
312.7902089617713
 31
0.0
  0
LINE
  5
1CAB
330
1F
100
AcDbEntity
  8
OutlineN
100
AcDbLine
 10
372.170019288582
 20
313.3029691402426
 30
0.0
 11
371.8557994470879
 21
312.7902089617713
 31
0.0
  0
LINE
  5
1D04
330
1F
100
AcDbEntity
  8
Hidden
  6
HIDDEN
 48
2.0
100
AcDbLine
 10
388.1775313608113
 20
316.1112647463387
 30
0.0
 11
389.088770417779
 21
315.6609023533197
 31
0.0
  0
LINE
  5
1D05
330
1F
100
AcDbEntity
  8
Hidden
  6
HIDDEN
 48
2.0
100
AcDbLine
 10
389.088770417779
 20
315.6609023533197
 30
0.0
 11
390.019079596397
 21
313.9112452601385
 31
0.0
  0
LINE
  5
1D06
330
1F
100
AcDbEntity
  8
Hidden
  6
HIDDEN
 48
2.0
100
AcDbLine
 10
388.1775313608113
 20
311.7112257739393
 30
0.0
 11
389.0887704177792
 21
312.1615881669579
 31
0.0
  0
LINE
  5
1D07
330
1F
100
AcDbEntity
  8
Hidden
  6
HIDDEN
 48
2.0
100
AcDbLine
 10
389.088770417779
 20
312.1615881669578
 30
0.0
 11
390.019079596397
 21
313.9112452601385
 31
0.0
  0
VIEWPORT
  5
3A8
102
{ACAD_XDICTIONARY
360
23A1
102
}
330
58
100
AcDbEntity
 67
     1
  8
0
100
AcDbViewport
 10
137.7062381827403
 20
99.20625099555138
 30
0.0
 40
338.242299822931
 41
211.6018178987057
 68
     1
 69
     1
 12
137.7062381827403
 22
99.20625099555138
 13
0.0
 23
0.0
 14
10.0
 24
10.0
 15
10.0
 25
10.0
 16
0.0
 26
0.0
 36
1.0
 17
0.0
 27
0.0
 37
0.0
 42
50.0
 43
0.0
 44
0.0
 45
211.6018178987057
 50
0.0
 51
0.0
 72
  1000
 90
   557088
  1

281
     0
 71
     1
 74
     0
110
0.0
120
0.0
130
0.0
111
1.0
121
0.0
131
0.0
112
0.0
122
1.0
132
0.0
 79
     0
146
0.0
  0
VIEWPORT
  5
3AB
102
{ACAD_XDICTIONARY
360
23A3
102
}
330
58
100
AcDbEntity
 67
     1
  8
0
100
AcDbViewport
 10
137.7062371894978
 20
99.20625082247916
 30
0.0
 40
266.9999999999999
 41
180.0
 68
     2
 69
     2
 12
388.3372428489288
 22
313.9112452844711
 13
0.0
 23
0.0
 14
0.5
 24
0.5
 15
0.5
 25
0.5
 16
0.0
 26
0.0
 36
1.0
 17
0.0
 27
0.0
 37
0.0
 42
50.0
 43
0.0
 44
0.0
 45
59.99999994412117
 50
0.0
 51
0.0
 72
  1000
 90
   557152
  1

281
     0
 71
     1
 74
     0
110
0.0
120
0.0
130
0.0
111
1.0
121
0.0
131
0.0
112
0.0
122
1.0
132
0.0
 79
     0
146
0.0
  0
INSERT
  5
130D
330
58
100
AcDbEntity
 67
     1
  8
0
100
AcDbBlockReference
  2
A4横（ねじ）
 10
-10.79376281050213
 20
-5.793749177520852
 30
0.0
  0
MTEXT
  5
131A
330
58
100
AcDbEntity
 67
     1
  8
0
100
AcDbMText
 10
186.2543342992238
 20
31.70625082247916
 30
0.0
 40
2.0
 41
30.09619421945212
 71
     5
 72
     5
  1
{\fMS PGothic|b0|i0|c128|p50;3 : 1 (A4)}
  7
FontStyle1
 73
     1
 44
1.0
1001
ACAD
1000
MTEXTBEGIN
1070
    73
1070
     1
1070
    44
1040
1.0
1070
    74
1070
     0
1000
MTEXTEND
1000
ACAD_MTEXT_DEFINED_HEIGHT_BEGIN
1070
    46
1040
5.000000000000011
1000
ACAD_MTEXT_DEFINED_HEIGHT_END
  0
MTEXT
  5
1322
330
58
100
AcDbEntity
 67
     1
  8
0
100
AcDbMText
 10
186.2543342992238
 20
26.70625082247916
 30
0.0
 40
1.5
 41
30.09619421945212
 71
     5
 72
     5
  1
{\fMS PGothic|b0|i0|c128|p50;W.O. 2011.11.11}
  7
FontStyle1
 73
     1
 44
1.0
1001
ACAD
1000
MTEXTBEGIN
1070
    73
1070
     1
1070
    44
1040
1.0
1070
    74
1070
     0
1000
MTEXTEND
1000
ACAD_MTEXT_DEFINED_HEIGHT_BEGIN
1070
    46
1040
5.000000000000011
1000
ACAD_MTEXT_DEFINED_HEIGHT_END
  0
MTEXT
  5
237B
330
58
100
AcDbEntity
 67
     1
  8
0
100
AcDbMText
 10
206.2491735410364
 20
39.20625082247909
 30
0.0
 40
2.5
 41
23.45706364846147
 71
     4
 72
     5
  1
{\fArial|b0|i0|c0|p34;ANM05-20}
  7
FontStyle1
 73
     1
 44
1.0
1001
ACAD
1000
MTEXTBEGIN
1070
    73
1070
     1
1070
    44
1040
1.0
1070
    74
1070
     0
1000
MTEXTEND
1000
ACAD_MTEXT_DEFINED_HEIGHT_BEGIN
1070
    46
1040
10.00000000000001
1000
ACAD_MTEXT_DEFINED_HEIGHT_END
  0
MTEXT
  5
237C
330
58
100
AcDbEntity
 67
     1
  8
0
100
AcDbMText
 10
206.2491735410364
 20
29.20625082247907
 30
0.0
 40
2.5
 41
23.45706364846147
 71
     4
 72
     5
  1
{\fArial|b0|i0|c0|p34;ZNM05-20}
  7
FontStyle1
 73
     1
 44
1.0
1001
ACAD
1000
MTEXTBEGIN
1070
    73
1070
     1
1070
    44
1040
1.0
1070
    74
1070
     0
1000
MTEXTEND
1000
ACAD_MTEXT_DEFINED_HEIGHT_BEGIN
1070
    46
1040
10.00000000000003
1000
ACAD_MTEXT_DEFINED_HEIGHT_END
  0
MTEXT
  5
237D
102
{ACAD_XDICTIONARY
360
23A9
102
}
330
58
100
AcDbEntity
 67
     1
  8
0
100
AcDbMText
 10
229.7062371894979
 20
39.20625082247909
 30
0.0
 40
1.6
 41
41.4999999999999
 71
     4
 72
     5
  1
{\fArial|b0|i0|c0|p34;Pan Head Screw  M5x20L\PAlumina  Al\H0.75x;2\H1.333x;O\H0.75x;3}
  7
FontStyle1
 73
     1
 44
1.0
1001
ACAD
1000
MTEXTBEGIN
1070
    73
1070
     1
1070
    44
1040
1.0
1070
    74
1070
     0
1000
MTEXTEND
1000
ACAD_MTEXT_DEFINED_HEIGHT_BEGIN
1070
    46
1040
10.00000000000001
1000
ACAD_MTEXT_DEFINED_HEIGHT_END
  0
MTEXT
  5
237E
102
{ACAD_XDICTIONARY
360
23AB
102
}
330
58
100
AcDbEntity
 67
     1
  8
0
100
AcDbMText
 10
229.7062371894979
 20
29.20625082247908
 30
0.0
 40
1.6
 41
41.4999999999999
 71
     4
 72
     5
  1
{\fArial|b0|i0|c0|p34;Pan Head Screw  M5x20L\PZirconia  ZrO\H0.75x;2}
  7
FontStyle1
 73
     1
 44
1.0
1001
ACAD
1000
MTEXTBEGIN
1070
    73
1070
     1
1070
    44
1040
1.0
1070
    74
1070
     0
1000
MTEXTEND
1000
ACAD_MTEXT_DEFINED_HEIGHT_BEGIN
1070
    46
1040
10.00000000000001
1000
ACAD_MTEXT_DEFINED_HEIGHT_END
  0
ENDSEC
  0
SECTION
  2
OBJECTS
  0
DICTIONARY
  5
C
330
0
100
AcDbDictionary
281
     1
  3
ACAD_COLOR
350
73
  3
ACAD_GROUP
350
D
  3
ACAD_LAYOUT
350
1A
  3
ACAD_MATERIAL
350
72
  3
ACAD_MLINESTYLE
350
17
  3
ACAD_PLOTSETTINGS
350
19
  3
ACAD_PLOTSTYLENAME
350
E
  3
ACAD_TABLESTYLE
350
86
  3
ACAD_VISUALSTYLE
350
99
  3
AcadDim
350
14C0
  3
AcDbVariableDictionary
350
66
  3
DWGPROPS
350
239B
  0
DICTIONARY
  5
3AF
330
2
100
AcDbDictionary
280
     1
281
     1
  3
ACAD_LAYERFILTERS
360
B06
  3
ACAD_LAYERSTATES
360
3B0
  3
ACLYDICTIONARY
360
B05
  0
DICTIONARY
  5
CB
330
1F
100
AcDbDictionary
280
     1
281
     1
  3
ACAD_SORTENTS
360
CC
  0
DICTIONARY
  5
130F
330
58
100
AcDbDictionary
280
     1
281
     1
  3
ACAD_SORTENTS
360
1310
  0
DICTIONARY
  5
1F66
330
8AB
100
AcDbDictionary
280
     1
281
     1
  0
DICTIONARY
  5
12F7
330
BDB
100
AcDbDictionary
280
     1
281
     1
  0
DICTIONARY
  5
23A1
330
3A8
100
AcDbDictionary
280
     1
281
     1
  3
ACAD_XREC_ROUNDTRIP
360
23A2
  0
DICTIONARY
  5
23A3
330
3AB
100
AcDbDictionary
280
     1
281
     1
  3
ACAD_XREC_ROUNDTRIP
360
23A4
  0
DICTIONARY
  5
23A9
330
237D
100
AcDbDictionary
280
     1
281
     1
  3
ACAD_MTEXT_RT
360
23AA
  0
DICTIONARY
  5
23AB
330
237E
100
AcDbDictionary
280
     1
281
     1
  3
ACAD_MTEXT_RT
360
23AC
  0
DICTIONARY
  5
73
102
{ACAD_REACTORS
330
C
102
}
330
C
100
AcDbDictionary
281
     1
  0
DICTIONARY
  5
D
102
{ACAD_REACTORS
330
C
102
}
330
C
100
AcDbDictionary
281
     1
  3
*A1
350
173
  3
*A10
350
15AA
  3
*A11
350
15AB
  3
*A12
350
16C9
  3
*A13
350
33C
  3
*A14
350
15AC
  3
*A15
350
192
  3
*A16
350
3BA
  3
*A17
350
18FE
  3
*A18
350
18FF
  3
*A19
350
177
  3
*A2
350
25A
  3
*A20
350
16C7
  3
*A21
350
341
  3
*A22
350
17FE
  3
*A23
350
189
  3
*A24
350
3E2
  3
*A25
350
3E1
  3
*A26
350
280
  3
*A27
350
19C
  3
*A28
350
16C8
  3
*A29
350
15AD
  3
*A3
350
17FC
  3
*A30
350
18F
  3
*A31
350
18E
  3
*A32
350
15AE
  3
*A33
350
336
  3
*A34
350
197
  3
*A4
350
33D
  3
*A5
350
89F
  3
*A6
350
17FD
  3
*A7
350
8AA
  3
*A8
350
18FD
  3
*A9
350
281
  0
DICTIONARY
  5
1A
102
{ACAD_REACTORS
330
C
102
}
330
C
100
AcDbDictionary
281
     1
  3
Model
350
22
  3
レイアウト1
350
59
  0
DICTIONARY
  5
72
102
{ACAD_REACTORS
330
C
102
}
330
C
100
AcDbDictionary
281
     1
  3
ByBlock
350
97
  3
ByLayer
350
96
  3
Global
350
98
  0
DICTIONARY
  5
17
102
{ACAD_REACTORS
330
C
102
}
330
C
100
AcDbDictionary
281
     1
  3
Standard
350
18
  0
DICTIONARY
  5
19
102
{ACAD_REACTORS
330
C
102
}
330
C
100
AcDbDictionary
281
     1
  0
ACDBDICTIONARYWDFLT
  5
E
102
{ACAD_REACTORS
330
C
102
}
330
C
100
AcDbDictionary
281
     1
  3
Normal
350
F
100
AcDbDictionaryWithDefault
340
F
  0
DICTIONARY
  5
86
102
{ACAD_REACTORS
330
C
102
}
330
C
100
AcDbDictionary
281
     1
  3
Standard
350
87
  0
DICTIONARY
  5
99
102
{ACAD_REACTORS
330
C
102
}
330
C
100
AcDbDictionary
281
     1
  3
2dWireframe
350
9F
  3
3D Hidden
350
A1
  3
3dWireframe
350
A0
  3
Basic
350
9E
  3
Brighten
350
A5
  3
ColorChange
350
A9
  3
Conceptual
350
A2
  3
Dim
350
A4
  3
Facepattern
350
A8
  3
Flat
350
9A
  3
FlatWithEdges
350
9B
  3
Gouraud
350
9C
  3
GouraudWithEdges
350
9D
  3
Linepattern
350
A7
  3
Realistic
350
A3
  3
Thicken
350
A6
  0
XRECORD
  5
14C0
102
{ACAD_REACTORS
330
C
102
}
330
C
100
AcDbXrecord
280
     1
 90
   990106
  3

 60
     0
 61
     0
 62
     1
 63
     3
 64
     0
 65
     0
 66
     0
 67
     3
 68
     1
 69
     0
 70
     0
 71
     0
 72
     0
 40
1.0
170
     0
340
1777
  0
DICTIONARY
  5
66
102
{ACAD_REACTORS
330
C
102
}
330
C
100
AcDbDictionary
281
     1
  3
CTABLESTYLE
350
89
  3
DIMASSOC
350
67
  3
HIDETEXT
350
6B
  3
INDEXCTL
350
1C15
  3
LOFTANG1
350
237F
  3
LOFTANG2
350
2380
  3
SORTENTS
350
1C14
  0
XRECORD
  5
239B
102
{ACAD_REACTORS
330
C
102
}
330
C
100
AcDbXrecord
280
     1
  1
DWGPROPS COOKIE
  2

  3

  4

  6

  7

  8
K079
  9

300
=
301
=
302
=
303
=
304
=
305
=
306
=
307
=
308
=
309
=
 40
0.7188827662037038
 41
2455622.734854733
 42
2455888.41454824
  1

 90
        0
  0
DICTIONARY
  5
B06
102
{ACAD_REACTORS
330
3AF
102
}
330
3AF
100
AcDbDictionary
281
     1
  0
DICTIONARY
  5
3B0
102
{ACAD_REACTORS
330
3AF
102
}
330
3AF
100
AcDbDictionary
281
     1
  0
DICTIONARY
  5
B05
102
{ACAD_REACTORS
330
3AF
102
}
330
3AF
100
AcDbDictionary
281
     1
1001
ACAD
1000
<All
  0
SORTENTSTABLE
  5
CC
102
{ACAD_REACTORS
330
CB
102
}
330
CB
100
AcDbSortentsTable
330
1F
331
1777
  5
1777
331
151A
  5
151C
331
1467
  5
14C2
331
144F
  5
14C1
331
1776
  5
1776
331
151D
  5
151D
331
1519
  5
151B
331
13BB
  5
147F
  0
SORTENTSTABLE
  5
1310
102
{ACAD_REACTORS
330
130F
102
}
330
130F
100
AcDbSortentsTable
330
58
331
130D
  5
3AB
331
3AB
  5
130D
331
3A8
  5
3A8
  0
XRECORD
  5
23A2
102
{ACAD_REACTORS
330
23A1
102
}
330
23A1
100
AcDbXrecord
280
     1
102
SHADEPLOT
 70
     0
  0
XRECORD
  5
23A4
102
{ACAD_REACTORS
330
23A3
102
}
330
23A3
100
AcDbXrecord
280
     1
102
SHADEPLOT
 70
     0
  0
XRECORD
  5
23AA
102
{ACAD_REACTORS
330
23A9
102
}
330
23A9
100
AcDbXrecord
280
     1
 40
279227.0
  1
{\fArial|b0|i0|c0|p34;Pan Head Screw  M5x20L^JAlumina  Al\H0.75x;2\H1.333x;O\H0.75x;3}
  0
XRECORD
  5
23AC
102
{ACAD_REACTORS
330
23AB
102
}
330
23AB
100
AcDbXrecord
280
     1
 40
195105.0
  1
{\fArial|b0|i0|c0|p34;Pan Head Screw  M5x20L^JZirconia  ZrO\H0.75x;2}
  0
GROUP
  5
173
102
{ACAD_REACTORS
330
D
102
}
330
D
100
AcDbGroup
300

 70
     1
 71
     1
  0
GROUP
  5
15AA
102
{ACAD_REACTORS
330
D
102
}
330
D
100
AcDbGroup
300

 70
     1
 71
     1
  0
GROUP
  5
15AB
102
{ACAD_REACTORS
330
D
102
}
330
D
100
AcDbGroup
300

 70
     1
 71
     1
  0
GROUP
  5
16C9
102
{ACAD_REACTORS
330
D
102
}
330
D
100
AcDbGroup
300

 70
     1
 71
     1
  0
GROUP
  5
33C
102
{ACAD_REACTORS
330
D
102
}
330
D
100
AcDbGroup
300

 70
     1
 71
     1
  0
GROUP
  5
15AC
102
{ACAD_REACTORS
330
D
102
}
330
D
100
AcDbGroup
300

 70
     1
 71
     1
  0
GROUP
  5
192
102
{ACAD_REACTORS
330
D
102
}
330
D
100
AcDbGroup
300

 70
     1
 71
     1
  0
GROUP
  5
3BA
102
{ACAD_REACTORS
330
D
102
}
330
D
100
AcDbGroup
300

 70
     1
 71
     1
  0
GROUP
  5
18FE
102
{ACAD_REACTORS
330
D
102
}
330
D
100
AcDbGroup
300

 70
     1
 71
     1
  0
GROUP
  5
18FF
102
{ACAD_REACTORS
330
D
102
}
330
D
100
AcDbGroup
300

 70
     1
 71
     1
  0
GROUP
  5
177
102
{ACAD_REACTORS
330
D
102
}
330
D
100
AcDbGroup
300

 70
     1
 71
     1
  0
GROUP
  5
25A
102
{ACAD_REACTORS
330
D
102
}
330
D
100
AcDbGroup
300

 70
     1
 71
     1
  0
GROUP
  5
16C7
102
{ACAD_REACTORS
330
D
102
}
330
D
100
AcDbGroup
300

 70
     1
 71
     1
  0
GROUP
  5
341
102
{ACAD_REACTORS
330
D
102
}
330
D
100
AcDbGroup
300

 70
     1
 71
     1
  0
GROUP
  5
17FE
102
{ACAD_REACTORS
330
D
102
}
330
D
100
AcDbGroup
300

 70
     1
 71
     1
  0
GROUP
  5
189
102
{ACAD_REACTORS
330
D
102
}
330
D
100
AcDbGroup
300

 70
     1
 71
     1
  0
GROUP
  5
3E2
102
{ACAD_REACTORS
330
D
102
}
330
D
100
AcDbGroup
300

 70
     1
 71
     1
  0
GROUP
  5
3E1
102
{ACAD_REACTORS
330
D
102
}
330
D
100
AcDbGroup
300

 70
     1
 71
     1
  0
GROUP
  5
280
102
{ACAD_REACTORS
330
D
102
}
330
D
100
AcDbGroup
300

 70
     1
 71
     1
  0
GROUP
  5
19C
102
{ACAD_REACTORS
330
D
102
}
330
D
100
AcDbGroup
300

 70
     1
 71
     1
  0
GROUP
  5
16C8
102
{ACAD_REACTORS
330
D
102
}
330
D
100
AcDbGroup
300

 70
     1
 71
     1
  0
GROUP
  5
15AD
102
{ACAD_REACTORS
330
D
102
}
330
D
100
AcDbGroup
300

 70
     1
 71
     1
  0
GROUP
  5
17FC
102
{ACAD_REACTORS
330
D
102
}
330
D
100
AcDbGroup
300

 70
     1
 71
     1
  0
GROUP
  5
18F
102
{ACAD_REACTORS
330
D
102
}
330
D
100
AcDbGroup
300

 70
     1
 71
     1
  0
GROUP
  5
18E
102
{ACAD_REACTORS
330
D
102
}
330
D
100
AcDbGroup
300

 70
     1
 71
     1
  0
GROUP
  5
15AE
102
{ACAD_REACTORS
330
D
102
}
330
D
100
AcDbGroup
300

 70
     1
 71
     1
  0
GROUP
  5
336
102
{ACAD_REACTORS
330
D
102
}
330
D
100
AcDbGroup
300

 70
     1
 71
     1
  0
GROUP
  5
197
102
{ACAD_REACTORS
330
D
102
}
330
D
100
AcDbGroup
300

 70
     1
 71
     1
  0
GROUP
  5
33D
102
{ACAD_REACTORS
330
D
102
}
330
D
100
AcDbGroup
300

 70
     1
 71
     1
  0
GROUP
  5
89F
102
{ACAD_REACTORS
330
D
102
}
330
D
100
AcDbGroup
300

 70
     1
 71
     1
  0
GROUP
  5
17FD
102
{ACAD_REACTORS
330
D
102
}
330
D
100
AcDbGroup
300

 70
     1
 71
     1
  0
GROUP
  5
8AA
102
{ACAD_REACTORS
330
D
102
}
330
D
100
AcDbGroup
300

 70
     1
 71
     1
  0
GROUP
  5
18FD
102
{ACAD_REACTORS
330
D
102
}
330
D
100
AcDbGroup
300

 70
     1
 71
     1
  0
GROUP
  5
281
102
{ACAD_REACTORS
330
D
102
}
330
D
100
AcDbGroup
300

 70
     1
 71
     1
  0
LAYOUT
  5
22
102
{ACAD_XDICTIONARY
360
239C
102
}
102
{ACAD_REACTORS
330
1A
102
}
330
1A
100
AcDbPlotSettings
  1

  2
none_device
  4
ISO_A4_(210.00_x_297.00_MM)
  6

 40
7.5
 41
20.0
 42
7.5
 43
20.0
 44
210.0
 45
297.0
 46
0.0
 47
0.0
 48
0.0
 49
0.0
140
0.0
141
0.0
142
1.0
143
1.420208019955029
 70
 11920
 72
     1
 73
     1
 74
     0
  7

 75
     0
147
0.7041222031908151
148
30.0011951563871
149
2.955441623215733
100
AcDbLayout
  1
Model
 70
     1
 71
     0
 10
0.0
 20
0.0
 11
12.0
 21
9.0
 12
0.0
 22
0.0
 32
0.0
 14
0.0
 24
0.0
 34
0.0
 15
0.0
 25
0.0
 35
0.0
146
0.0
 13
0.0
 23
0.0
 33
0.0
 16
1.0
 26
0.0
 36
0.0
 17
0.0
 27
1.0
 37
0.0
 76
     0
330
1F
331
94
1001
ACAD_PSEXT
1000
なし
1000
なし
1000
適切ではありません
1000
新しいプロッタ環境設定名を選択しない限り、レイアウトは印刷されません。
1070
     0
  0
LAYOUT
  5
59
102
{ACAD_XDICTIONARY
360
3B2
102
}
102
{ACAD_REACTORS
330
1A
102
}
330
1A
100
AcDbPlotSettings
  1

  2
DWG To PDF.pc3
  4
ISO_expand_A4_(210.00_x_297.00_MM)
  6

 40
5.793749809265136
 41
10.79374980926513
 42
5.793746948242187
 43
10.79376220703125
 44
210.0
 45
297.0
 46
0.0
 47
0.0
 48
0.0
 49
0.0
140
0.0
141
0.0
142
1.0
143
1.0
 70
   640
 72
     1
 73
     1
 74
     5
  7

 75
    16
147
25.4
148
0.0
149
0.0
100
AcDbLayout
  1
レイアウト1
 70
     1
 71
     1
 10
-10.79376220703125
 20
-5.793749809265136
 11
286.2062377929687
 21
204.2062501907349
 12
0.0
 22
0.0
 32
0.0
 14
-10.80282583972723
 24
-5.800158011753751
 34
-0.0015258207003583
 15
286.2153022052079
 25
204.2126600028565
 35
0.0000000349246037
146
0.0
 13
0.0
 23
0.0
 33
0.0
 16
1.0
 26
0.0
 36
0.0
 17
0.0
 27
1.0
 37
0.0
 76
     0
330
58
331
3A8
1001
ACAD_PSEXT
1000
DWG To PDF.pc3
1000
PDF
1000
ファイル
1000

1070
     0
  0
MATERIAL
  5
97
102
{ACAD_XDICTIONARY
360
1C20
102
}
102
{ACAD_REACTORS
330
72
102
}
330
72
100
AcDbMaterial
  1
ByBlock
  0
MATERIAL
  5
96
102
{ACAD_XDICTIONARY
360
1C1E
102
}
102
{ACAD_REACTORS
330
72
102
}
330
72
100
AcDbMaterial
  1
ByLayer
  0
MATERIAL
  5
98
102
{ACAD_XDICTIONARY
360
1C22
102
}
102
{ACAD_REACTORS
330
72
102
}
330
72
100
AcDbMaterial
  1
Global
  0
MLINESTYLE
  5
18
102
{ACAD_REACTORS
330
17
102
}
330
17
100
AcDbMlineStyle
  2
STANDARD
 70
     0
  3

 62
   256
 51
90.0
 52
90.0
 71
     2
 49
0.5
 62
   256
  6
BYLAYER
 49
-0.5
 62
   256
  6
BYLAYER
  0
ACDBPLACEHOLDER
  5
F
102
{ACAD_REACTORS
330
E
102
}
330
E
  0
TABLESTYLE
  5
87
102
{ACAD_XDICTIONARY
360
239F
102
}
102
{ACAD_REACTORS
330
86
102
}
330
86
100
AcDbTableStyle
  3
Standard
 70
     0
 71
     0
 40
0.06
 41
0.06
280
     0
281
     0
  7
Standard
140
0.18
170
     2
 62
     0
 63
     7
283
     0
274
    -2
284
     1
 64
     0
275
    -2
285
     1
 65
     0
276
    -2
286
     1
 66
     0
277
    -2
287
     1
 67
     0
278
    -2
288
     1
 68
     0
279
    -2
289
     1
 69
     0
  7
Standard
140
0.25
170
     5
 62
     0
 63
     7
283
     0
274
    -2
284
     1
 64
     0
275
    -2
285
     1
 65
     0
276
    -2
286
     1
 66
     0
277
    -2
287
     1
 67
     0
278
    -2
288
     1
 68
     0
279
    -2
289
     1
 69
     0
  7
Standard
140
0.18
170
     5
 62
     0
 63
     7
283
     0
274
    -2
284
     1
 64
     0
275
    -2
285
     1
 65
     0
276
    -2
286
     1
 66
     0
277
    -2
287
     1
 67
     0
278
    -2
288
     1
 68
     0
279
    -2
289
     1
 69
     0
  0
VISUALSTYLE
  5
9F
102
{ACAD_REACTORS
330
99
102
}
330
99
100
AcDbVisualStyle
  2
2dWireframe
 70
     4
 71
     0
 72
     2
 73
     1
 90
        0
 40
-0.6
 41
-30.0
 62
     5
 63
     7
 74
     1
 91
        4
 64
     7
 65
   257
 75
     1
175
     1
 42
1.0
 92
        0
 66
   257
 43
1.0
 76
     1
 77
     6
 78
     2
 67
     7
 79
     5
170
     0
171
     0
290
     0
174
     0
 93
        1
 44
0.0
173
     0
291
     0
 45
0.0
1001
ACAD
1000
AcDbSavedByObjectVersion
1070
     0
1000
AcDbSavedByObjectVersion
1070
     0
1000
AcDbSavedByObjectVersion
1070
     0
1000
AcDbSavedByObjectVersion
1070
     0
  0
VISUALSTYLE
  5
A1
102
{ACAD_REACTORS
330
99
102
}
330
99
100
AcDbVisualStyle
  2
3D Hidden
 70
     6
 71
     1
 72
     2
 73
     2
 90
        0
 40
-0.6
 41
-30.0
 62
     5
 63
     7
 74
     2
 91
        2
 64
     7
 65
   257
 75
     2
175
     1
 42
40.0
 92
        0
 66
   257
 43
1.0
 76
     1
 77
     6
 78
     2
 67
     7
 79
     3
170
     0
171
     0
290
     0
174
     0
 93
        1
 44
0.0
173
     0
291
     0
 45
0.0
1001
ACAD
1000
AcDbSavedByObjectVersion
1070
     0
1000
AcDbSavedByObjectVersion
1070
     0
1000
AcDbSavedByObjectVersion
1070
     0
1000
AcDbSavedByObjectVersion
1070
     0
  0
VISUALSTYLE
  5
A0
102
{ACAD_REACTORS
330
99
102
}
330
99
100
AcDbVisualStyle
  2
3dWireframe
 70
     5
 71
     0
 72
     2
 73
     1
 90
        0
 40
-0.6
 41
-30.0
 62
     5
 63
     7
 74
     1
 91
        4
 64
     7
 65
   257
 75
     1
175
     1
 42
1.0
 92
        0
 66
   257
 43
1.0
 76
     1
 77
     6
 78
     2
 67
     7
 79
     5
170
     0
171
     0
290
     0
174
     0
 93
        1
 44
0.0
173
     0
291
     0
 45
0.0
1001
ACAD
1000
AcDbSavedByObjectVersion
1070
     0
1000
AcDbSavedByObjectVersion
1070
     0
1000
AcDbSavedByObjectVersion
1070
     0
1000
AcDbSavedByObjectVersion
1070
     0
  0
VISUALSTYLE
  5
9E
102
{ACAD_REACTORS
330
99
102
}
330
99
100
AcDbVisualStyle
  2
Basic
 70
     7
 71
     1
 72
     0
 73
     1
 90
        0
 40
-0.6
 41
-30.0
 62
     5
 63
     7
 74
     0
 91
        4
 64
     7
 65
   257
 75
     1
175
     1
 42
1.0
 92
        8
 66
     7
 43
1.0
 76
     1
 77
     6
 78
     2
 67
     7
 79
     5
170
     0
171
     0
290
     0
174
     0
 93
        1
 44
0.0
173
     0
291
     1
 45
0.0
1001
ACAD
1000
AcDbSavedByObjectVersion
1070
     0
1000
AcDbSavedByObjectVersion
1070
     0
1000
AcDbSavedByObjectVersion
1070
     0
1000
AcDbSavedByObjectVersion
1070
     0
  0
VISUALSTYLE
  5
A5
102
{ACAD_REACTORS
330
99
102
}
330
99
100
AcDbVisualStyle
  2
Brighten
 70
    12
 71
     2
 72
     2
 73
     1
 90
        0
 40
-0.6
 41
-30.0
 62
     5
 63
     7
 74
     1
 91
        4
 64
     7
 65
   257
 75
     1
175
     1
 42
1.0
 92
        8
 66
     7
 43
1.0
 76
     1
 77
     6
 78
     2
 67
     7
 79
     5
170
     0
171
     0
290
     0
174
     0
 93
        1
 44
50.0
173
     0
291
     1
 45
0.0
1001
ACAD
1000
AcDbSavedByObjectVersion
1070
     0
1000
AcDbSavedByObjectVersion
1070
     0
1000
AcDbSavedByObjectVersion
1070
     0
1000
AcDbSavedByObjectVersion
1070
     0
  0
VISUALSTYLE
  5
A9
102
{ACAD_REACTORS
330
99
102
}
330
99
100
AcDbVisualStyle
  2
ColorChange
 70
    16
 71
     2
 72
     2
 73
     3
 90
        0
 40
-0.6
 41
-30.0
 62
     5
 63
     8
 74
     1
 91
        4
 64
     7
 65
   257
 75
     1
175
     1
 42
1.0
 92
        8
 66
     8
 43
1.0
 76
     1
 77
     6
 78
     2
 67
     7
 79
     5
170
     0
171
     0
290
     0
174
     0
 93
        1
 44
0.0
173
     0
291
     1
 45
0.0
1001
ACAD
1000
AcDbSavedByObjectVersion
1070
     0
1000
AcDbSavedByObjectVersion
1070
     0
1000
AcDbSavedByObjectVersion
1070
     0
1000
AcDbSavedByObjectVersion
1070
     0
  0
VISUALSTYLE
  5
A2
102
{ACAD_REACTORS
330
99
102
}
330
99
100
AcDbVisualStyle
  2
Conceptual
 70
     9
 71
     3
 72
     2
 73
     1
 90
        0
 40
-0.6
 41
-30.0
 62
     5
 63
     7
 74
     2
 91
        2
 64
     7
 65
   257
 75
     1
175
     1
 42
40.0
 92
        8
 66
     7
 43
1.0
 76
     1
 77
     6
 78
     2
 67
     7
 79
     3
170
     0
171
     0
290
     0
174
     0
 93
        1
 44
0.0
173
     0
291
     0
 45
0.0
1001
ACAD
1000
AcDbSavedByObjectVersion
1070
     0
1000
AcDbSavedByObjectVersion
1070
     0
1000
AcDbSavedByObjectVersion
1070
     0
1000
AcDbSavedByObjectVersion
1070
     0
  0
VISUALSTYLE
  5
A4
102
{ACAD_REACTORS
330
99
102
}
330
99
100
AcDbVisualStyle
  2
Dim
 70
    11
 71
     2
 72
     2
 73
     1
 90
        0
 40
-0.6
 41
-30.0
 62
     5
 63
     7
 74
     1
 91
        4
 64
     7
 65
   257
 75
     1
175
     1
 42
1.0
 92
        8
 66
     7
 43
1.0
 76
     1
 77
     6
 78
     2
 67
     7
 79
     5
170
     0
171
     0
290
     0
174
     0
 93
        1
 44
-50.0
173
     0
291
     1
 45
0.0
1001
ACAD
1000
AcDbSavedByObjectVersion
1070
     0
1000
AcDbSavedByObjectVersion
1070
     0
1000
AcDbSavedByObjectVersion
1070
     0
1000
AcDbSavedByObjectVersion
1070
     0
  0
VISUALSTYLE
  5
A8
102
{ACAD_REACTORS
330
99
102
}
330
99
100
AcDbVisualStyle
  2
Facepattern
 70
    15
 71
     2
 72
     2
 73
     1
 90
        0
 40
-0.6
 41
-30.0
 62
     5
 63
     7
 74
     1
 91
        4
 64
     7
 65
   257
 75
     1
175
     1
 42
1.0
 92
        8
 66
     7
 43
1.0
 76
     1
 77
     6
 78
     2
 67
     7
 79
     5
170
     0
171
     0
290
     0
174
     0
 93
        1
 44
0.0
173
     0
291
     1
 45
0.0
1001
ACAD
1000
AcDbSavedByObjectVersion
1070
     0
1000
AcDbSavedByObjectVersion
1070
     0
1000
AcDbSavedByObjectVersion
1070
     0
1000
AcDbSavedByObjectVersion
1070
     0
  0
VISUALSTYLE
  5
9A
102
{ACAD_REACTORS
330
99
102
}
330
99
100
AcDbVisualStyle
  2
Flat
 70
     0
 71
     2
 72
     1
 73
     1
 90
        2
 40
-0.6
 41
30.0
 62
     5
 63
     7
 74
     0
 91
        4
 64
     7
 65
   257
 75
     1
175
     1
 42
1.0
 92
        8
 66
     7
 43
1.0
 76
     1
 77
     6
 78
     2
 67
     7
 79
     5
170
     0
171
     0
290
     0
174
     0
 93
        1
 44
0.0
173
     0
291
     1
 45
0.0
1001
ACAD
1000
AcDbSavedByObjectVersion
1070
     0
1000
AcDbSavedByObjectVersion
1070
     0
1000
AcDbSavedByObjectVersion
1070
     0
1000
AcDbSavedByObjectVersion
1070
     0
  0
VISUALSTYLE
  5
9B
102
{ACAD_REACTORS
330
99
102
}
330
99
100
AcDbVisualStyle
  2
FlatWithEdges
 70
     1
 71
     2
 72
     1
 73
     1
 90
        2
 40
-0.6
 41
30.0
 62
     5
 63
     7
 74
     1
 91
        4
 64
     7
 65
   257
 75
     1
175
     1
 42
1.0
 92
        0
 66
   257
 43
1.0
 76
     1
 77
     6
 78
     2
 67
     7
 79
     5
170
     0
171
     0
290
     0
174
     0
 93
        1
 44
0.0
173
     0
291
     1
 45
0.0
1001
ACAD
1000
AcDbSavedByObjectVersion
1070
     0
1000
AcDbSavedByObjectVersion
1070
     0
1000
AcDbSavedByObjectVersion
1070
     0
1000
AcDbSavedByObjectVersion
1070
     0
  0
VISUALSTYLE
  5
9C
102
{ACAD_REACTORS
330
99
102
}
330
99
100
AcDbVisualStyle
  2
Gouraud
 70
     2
 71
     2
 72
     2
 73
     1
 90
        2
 40
-0.6
 41
30.0
 62
     5
 63
     7
 74
     0
 91
        4
 64
     7
 65
   257
 75
     1
175
     1
 42
1.0
 92
        0
 66
     7
 43
1.0
 76
     1
 77
     6
 78
     2
 67
     7
 79
     5
170
     0
171
     0
290
     0
174
     0
 93
        1
 44
0.0
173
     0
291
     1
 45
0.0
1001
ACAD
1000
AcDbSavedByObjectVersion
1070
     0
1000
AcDbSavedByObjectVersion
1070
     0
1000
AcDbSavedByObjectVersion
1070
     0
1000
AcDbSavedByObjectVersion
1070
     0
  0
VISUALSTYLE
  5
9D
102
{ACAD_REACTORS
330
99
102
}
330
99
100
AcDbVisualStyle
  2
GouraudWithEdges
 70
     3
 71
     2
 72
     2
 73
     1
 90
        2
 40
-0.6
 41
30.0
 62
     5
 63
     7
 74
     1
 91
        4
 64
     7
 65
   257
 75
     1
175
     1
 42
1.0
 92
        0
 66
   257
 43
1.0
 76
     1
 77
     6
 78
     2
 67
     7
 79
     5
170
     0
171
     0
290
     0
174
     0
 93
        1
 44
0.0
173
     0
291
     1
 45
0.0
1001
ACAD
1000
AcDbSavedByObjectVersion
1070
     0
1000
AcDbSavedByObjectVersion
1070
     0
1000
AcDbSavedByObjectVersion
1070
     0
1000
AcDbSavedByObjectVersion
1070
     0
  0
VISUALSTYLE
  5
A7
102
{ACAD_REACTORS
330
99
102
}
330
99
100
AcDbVisualStyle
  2
Linepattern
 70
    14
 71
     2
 72
     2
 73
     1
 90
        0
 40
-0.6
 41
-30.0
 62
     5
 63
     7
 74
     1
 91
        4
 64
     7
 65
   257
 75
     7
175
     7
 42
1.0
 92
        8
 66
     7
 43
1.0
 76
     1
 77
     6
 78
     2
 67
     7
 79
     5
170
     0
171
     0
290
     0
174
     0
 93
        1
 44
0.0
173
     0
291
     1
 45
0.0
1001
ACAD
1000
AcDbSavedByObjectVersion
1070
     0
1000
AcDbSavedByObjectVersion
1070
     0
1000
AcDbSavedByObjectVersion
1070
     0
1000
AcDbSavedByObjectVersion
1070
     0
  0
VISUALSTYLE
  5
A3
102
{ACAD_REACTORS
330
99
102
}
330
99
100
AcDbVisualStyle
  2
Realistic
 70
     8
 71
     2
 72
     2
 73
     1
 90
        0
 40
-0.6
 41
-30.0
 62
     5
 63
     7
 74
     1
 91
        0
 64
     7
 65
   257
 75
     1
175
     1
 42
1.0
 92
        8
 66
     8
 43
1.0
 76
     1
 77
     6
 78
     2
 67
     7
 79
     5
170
     0
171
     0
290
     0
174
     0
 93
       13
 44
0.0
173
     0
291
     0
 45
0.0
1001
ACAD
1000
AcDbSavedByObjectVersion
1070
     0
1000
AcDbSavedByObjectVersion
1070
     0
1000
AcDbSavedByObjectVersion
1070
     0
1000
AcDbSavedByObjectVersion
1070
     0
  0
VISUALSTYLE
  5
A6
102
{ACAD_REACTORS
330
99
102
}
330
99
100
AcDbVisualStyle
  2
Thicken
 70
    13
 71
     2
 72
     2
 73
     1
 90
        0
 40
-0.6
 41
-30.0
 62
     5
 63
     7
 74
     1
 91
        4
 64
     7
 65
   257
 75
     1
175
     1
 42
1.0
 92
       12
 66
     7
 43
1.0
 76
     1
 77
     6
 78
     2
 67
     7
 79
     5
170
     0
171
     0
290
     0
174
     0
 93
        1
 44
0.0
173
     0
291
     1
 45
0.0
1001
ACAD
1000
AcDbSavedByObjectVersion
1070
     0
1000
AcDbSavedByObjectVersion
1070
     0
1000
AcDbSavedByObjectVersion
1070
     0
1000
AcDbSavedByObjectVersion
1070
     0
  0
DICTIONARYVAR
  5
89
102
{ACAD_REACTORS
330
66
102
}
330
66
100
DictionaryVariables
280
     0
  1
STANDARD
  0
DICTIONARYVAR
  5
67
102
{ACAD_REACTORS
330
66
102
}
330
66
100
DictionaryVariables
280
     0
  1
2
  0
DICTIONARYVAR
  5
6B
102
{ACAD_REACTORS
330
66
102
}
330
66
100
DictionaryVariables
280
     0
  1
1
  0
DICTIONARYVAR
  5
1C15
102
{ACAD_REACTORS
330
66
102
}
330
66
100
DictionaryVariables
280
     0
  1
0
  0
DICTIONARYVAR
  5
237F
102
{ACAD_REACTORS
330
66
102
}
330
66
100
DictionaryVariables
280
     0
  1
1.570796
  0
DICTIONARYVAR
  5
2380
102
{ACAD_REACTORS
330
66
102
}
330
66
100
DictionaryVariables
280
     0
  1
1.570796
  0
DICTIONARYVAR
  5
1C14
102
{ACAD_REACTORS
330
66
102
}
330
66
100
DictionaryVariables
280
     0
  1
127
  0
DICTIONARY
  5
239C
330
22
100
AcDbDictionary
280
     1
281
     1
  3
ACAD_XREC_ROUNDTRIP
360
239D
  0
DICTIONARY
  5
3B2
330
59
100
AcDbDictionary
280
     1
281
     1
  3
ACAD_XREC_ROUNDTRIP
360
239E
  3
ADSK_XREC_LAYOUTTHUMBNAIL
360
3B3
  0
DICTIONARY
  5
1C20
330
97
100
AcDbDictionary
280
     1
281
     1
  3
ACAD_XREC_ROUNDTRIP
360
1C21
  0
DICTIONARY
  5
1C1E
330
96
100
AcDbDictionary
280
     1
281
     1
  3
ACAD_XREC_ROUNDTRIP
360
1C1F
  0
DICTIONARY
  5
1C22
330
98
100
AcDbDictionary
280
     1
281
     1
  3
ACAD_XREC_ROUNDTRIP
360
1C23
  0
DICTIONARY
  5
239F
330
87
100
AcDbDictionary
280
     1
281
     1
  3
ACAD_XREC_ROUNDTRIP
360
23A0
  0
XRECORD
  5
239D
102
{ACAD_REACTORS
330
239C
102
}
330
239C
100
AcDbXrecord
280
     1
102
SHADEPLOT
 70
     0
102
SHADEPLOTRESLEVEL
 70
     2
102
SHADEPLOTCUSTOMDPI
 70
   300
  0
XRECORD
  5
239E
102
{ACAD_REACTORS
330
3B2
102
}
330
3B2
100
AcDbXrecord
280
     1
102
SHADEPLOT
 70
     0
102
SHADEPLOTRESLEVEL
 70
     2
102
SHADEPLOTCUSTOMDPI
 70
   300
  0
XRECORD
  5
3B3
102
{ACAD_REACTORS
330
3B2
102
}
330
3B2
100
AcDbXrecord
280
     1
310
28000000B40000007F00000001000800000000004C59000000000000000000000001000000000000FFFFFF0000000000FFFFFF000000000000000000000000000000000000000000000000000000000000000000330000006600000099000000CC000000FF00000000330000333300006633000099330000CC330000FF3300
310
0000660000336600006666000099660000CC660000FF66000000990000339900006699000099990000CC990000FF99000000CC000033CC000066CC000099CC0000CCCC0000FFCC000000FF000033FF000066FF000099FF0000CCFF0000FFFF000000003300330033006600330099003300CC003300FF003300003333003333
310
33006633330099333300CC333300FF33330000663300336633006666330099663300CC663300FF66330000993300339933006699330099993300CC993300FF99330000CC330033CC330066CC330099CC3300CCCC3300FFCC330000FF330033FF330066FF330099FF3300CCFF3300FFFF330000006600330066006600660099
310
006600CC006600FF00660000336600333366006633660099336600CC336600FF33660000666600336666006666660099666600CC666600FF66660000996600339966006699660099996600CC996600FF99660000CC660033CC660066CC660099CC6600CCCC6600FFCC660000FF660033FF660066FF660099FF6600CCFF6600
310
FFFF660000009900330099006600990099009900CC009900FF00990000339900333399006633990099339900CC339900FF33990000669900336699006666990099669900CC669900FF66990000999900339999006699990099999900CC999900FF99990000CC990033CC990066CC990099CC9900CCCC9900FFCC990000FF99
310
0033FF990066FF990099FF9900CCFF9900FFFF99000000CC003300CC006600CC009900CC00CC00CC00FF00CC000033CC003333CC006633CC009933CC00CC33CC00FF33CC000066CC003366CC006666CC009966CC00CC66CC00FF66CC000099CC003399CC006699CC009999CC00CC99CC00FF99CC0000CCCC0033CCCC0066CC
310
CC0099CCCC00CCCCCC00FFCCCC0000FFCC0033FFCC0066FFCC0099FFCC00CCFFCC00FFFFCC000000FF003300FF006600FF009900FF00CC00FF00FF00FF000033FF003333FF006633FF009933FF00CC33FF00FF33FF000066FF003366FF006666FF009966FF00CC66FF00FF66FF000099FF003399FF006699FF009999FF00CC
310
99FF00FF99FF0000CCFF0033CCFF0066CCFF0099CCFF00CCCCFF00FFCCFF0000FFFF0033FFFF0066FFFF0099FFFF00CCFFFF00FFFFFF00000000000D0D0D001A1A1A00282828003535350043434300505050005D5D5D006B6B6B00787878008686860093939300A1A1A100AEAEAE00BBBBBB00C9C9C900D6D6D600E4E4E400
310
F1F1F100FFFFFF0000000000000000000000000000000000000000000000000000000000000000000000000000000000E2E2E2E2E2E2E2E2E2E2E2E2E2E2E2E2E2E2E2E2E2E2E2E2E2E2E2E2E2E2E2E2E2E2E2E2E2E2E2E2E2E2E2E2E2E2E2E2E2E2E2E2E2E2E2E2E2E2E2E2E2E2E2E2E2E2E2E2E2E2E2E2E2E2E2E2E2E2E2
310
E2E2E2E2E2E2E2E2E2E2E2E2E2E2E2E2E2E2E2E2E2E2E2E2E2E2E2E2E2E2E2E2E2E2E2E2E2E2E2E2E2E2E2E2E2E2E2E2E2E2E2E2E2E2E2E2E2E2E2E2E2E2E2E2E2E2E2E2E2E2E2E2E2E2E2E2E2E2E2E2E2E2E2E2E2E2E2E2E2E2E2E2E2E2E2E2E2E2E2E2E2E2F5F5F5F5F5F5F5F5F5F5F5F5F5F5F5F5F5F5F5F5F5F5F5F5F5
310
F5F5F5F5F5F5F5F5F5F5F5F5F5F5F5F5F5F5F5F5F5F5F5F5F5F5F5F5F5F5F5F5F5F5F5F5F5F5F5F5F5F5F5F5F5F5F5F5F5F5F5F5F5F5F5F5F5F5F5F5F5F5F5F5F5F5F5F5F5F5F5F5F5F5F5F5F5F5F5F5F5F5F5F5F5F5F5F5F5F5F5F5F5F5F5F5F5F5F5F5F5F5F5F5F5F5F5F5F5F5F5F5F5F5F5F5F5F5F5F5F5F5F5F5F5F5F5
310
F5F5F5F5F5F5F5F5F5F5F5F5F5F5F5F5F5F5F5F5F5F5F5F5F5E2E2E2F5F5F5F5F5F5F5F5F5F5F5F5F5F5F5F5F5F5F5F5F5F5F5F5F5F5F5F5F5F5F5F5F5F5F5F5F5F5F5F5F5F5F5F5F5F5F5F5F5F5F5F5F5F5F5F5F5F5F5F5F5F5F5F5F5F5F5F5F5F5F5F5F5F5F5F5F5F5F5F5F5F5F5F5F5F5F5F5F5F5F5F5F5F5F5F5F5F5F5
310
F5F5F5F5F5F5F5F5F5F5F5F5F5F5F5F5F5F5F5F5F5F5F5F5F5F5F5F5F5F5F5F5F5F5F5F5F5F5F5F5F5F5F5F5F5F5F5F5F5F5F5F5F5F5F5F5F5F5F5F5F5F5F5F5F5F5F5F5F5F5F5F5F5F5F5F5F5F5E2E2E2F5F5F5F5F5F5F5F5F5F5F5F5F5F5F5F5F5F5F5F5F5F5F5F5F5F5F5F5F5F5F5F5F5F5F5F5F5F5F5F5F5F5F5F5F5F5
310
F5F5F5F5F5F5F5F5F5F5F5F5F5F5F5F5F5F5F5F5F5F5F5F5F5F5F5F5F5F5F5F5F5F5F5F5F5F5F5F5F5F5F5F5F5F5F5F5F5F5F5F5F5F5F5F5F5F5F5F5F5F5F5F5F5F5F5F5F5F5F5F5F5F5F5F5F5F5F5F5F5F5F5F5F5F5F5F5F5F5F5F5F5F5F5F5F5F5F5F5F5F5F5F5F5F5F5F5F5F5F5F5F5F5F5F5F5F5F5F5F5F5F5F5F5F5F5
310
F5F5F5F5E2E2E2F5F5F5F5F5E2E2E2E2E2E2E2E2F5F5F5F5F5F5F5F5F5E2E2E2E2E2E2E2E2E2E2E2E2E2E2E2F5F5F5F5F5F5F5F5E2E2E2E2E2E2E2E2E2E2E2E2E2E2E2E2F5F5F5F5F5F5F5F5E2E2E2E2E2E2E2E2E2E2E2E2E2E2E2F5F5F5F5F5F5F5F5F5E2E2E2E2E2E2E2E2E2E2E2E2E2E2E2F5F5F5F5F5F5F5F5E2E2E2E2
310
E2E2E2E2E2E2E2E2E2E2E2E2F5F5F5F5F5F5F5F5E2E2E2E2E2E2E2E2E2E2E2E2E2E2E2F5F5F5F5F5F5F5F5F5E2E2E2E2E2E2E2E2F5F5F5F5F5E2E2E2F5F5F5F5F5E2F5F5F5F5F5F5F5F5F5F5F5F5F5F5F5F5F5F5F5F5F5F5F5F5F5F5F5F5F5F5F5F5F5F5F5F5F5F5F5F5F5F5F5F5F5F5F5F5F5F5F5F5F5F5F5F5F5F5F5F5F5
310
F5F5F5F5F5F5F5F5F5F5F5F5F5F5F5F5F5F5F5F5F5F5F5F5F5F5F5F5F5F5F5F5F5F5F5F5F5F5F5F5F5F5F5F5F5F5F5F5F5F5F5F5F5F5F5F5F5F5F5F5F5F5F5F5F5F5F5F5F5F5F5F5F5F5F5F5F5F5F5F5F5F5F5F5F5F5F5F5F5F5F5F5F5F5F5F5F5F5F5F5F5F5F5F5E2F5F5F5F5F5E2E2E2F5F5F5F5F5E2F5F5F5F5F5F5F5F5
310
F5F5F5F5F5F5F5F5F5F5F5F5F5F5F5F5F5F5F5F5F5E2F5F5F5F5F5F5F5F5F5F5F5F5F5F5F5F5F5F5F5F5F5F5F5F5F5E2F5F5F5F5F5F5F5F5F5F5F5F5F5F5F5F5F5F5F5F5F5F5F5F5F5F5E2F5F5F5F5F5F5F5F5F5F5F5F5F5F5F5F5F5F5F5F5F5F5F5F5F5F5E2F5F5F5F5F5F5F5F5F5F5F5F5F5F5F5F5F5F5F5F5F5F5F5F5F5
310
E2F5F5F5F5F5F5F5F5F5F5F5F5F5F5F5F5F5F5F5F5F5F5F5F5F5F5F5F5F5E2F5F5F5F5F5E2E2E2F5F5F5F5F5E2F5F5F5F5F5F5F5F5F5F5F5F5F5F5F5E2F5F5F5F5F5F5F5F5F5F5F5F5F5E2F5F5F5F5F5F5F5F5F5F5F5F5E2F5F5F5F5F5F5F5F5F5F5F5F5E2F5F5F5F5F5F5F5F5F5F5F5F5E2E2F5F5F5F5F5F5F5F5F5F5F5F5
310
E2F5F5F5F5F5F5F5F5F5F5F5F5E2E2F5F5F5F5F5F5F5F5F5F5F5F5E2F5F5F5F5F5F5F5F5F5F5F5F5E2F5F5F5F5F5F5F5F5F5F5F5F5E2F5F5F5F5F5F5F5F5F5F5F5F5E2E2F5F5F5F5F5F5F5F5F5F5F5F5F5F5F5E2F5F5F5F5F5E2E2E2F5F5F5F5F5E2F5F5F5F5F5F5F5F5F5F5F5F5F5F5F5E2F5F5F5F5F5F5F5F5F5F5F5F5F5
310
E2F5F5F5F5F5F5F5F5F5F5F5F5E2F5F5F5F5F5F5F5F5F5F5F5F5E2F5F5F5F5F5F5F5F5F5F5F5F5E2E2F5F5F5F5F5F5F5F5F5F5F5F5E2F5F5F5F5F5F5F5F5F5F5F5F5E2F5F5F5F5F5F5F5F5F5F5F5F5F5E2F5F5F5F5F5F5F5F5F5F5F5F5E2F5F5F5F5F5F5F5F5F5F5F5F5E2F5F5F5F5F5F5F5F5F5F5F5F5E2E2F5F5F5F5F5F5
310
F5F5F5F5F5F5F5F5F5E2F5F5F5F5F5E2E2E2F5F5F5F5F5E2F5F5E2E2E2E2E2E2E2E2E2E2E2E2E2E2E2E2E2E2E2E2E2E2E2E2E2E2E2E2E2E2E2E2E2E2E2E2E2E2E2E2E2E2E2E2E2E2E2E2E2E2E2E2E2E2E2E2E2E2E2E2E2E2E2E2E2E2E2E2E2E2E2E2E2E2E2E2E2E2E2E2E2E2E2E2E2E2E2E2E2E2E2E2E2E2E2E2E2E2E2E2E2
310
E2E2E2E2E2E2E2E2E2E2E2E2E2E2E2E2E2E2E2E2E2E2E2E2E2E2E2E2E2E2E2E2E2E2E2E2E2E2E2E2E2E2E2E2E2E2E2E2E2E2E2E2E2E2E2E2E2E2E2E2F5F5E2F5F5F5F5F5E2E2E2F5F5F5F5F5E2F5F5E2F5F5F5F5F5F5F5F5F5F5F5F5F5F5F5F5F5F5F5F5F5F5F5F5F5F5F5F5F5F5F5F5F5F5F5F5F5F5F5F5F5F5F5F5F5F5F5
310
F5F5F5F5F5F5F5F5F5F5F5F5F5F5F5F5F5F5F5F5F5F5F5F5F5F5F5F5F5F5F5F5F5F5F5F5F5F5F5F5F5F5F5F5F5F5F5F5F5F5F5F5E2F5F5F5F5F5F5F5F5F5F5F5F5F5F5F5F5F5E2F5F5F5F5F5E2E2E2E2E2E2E2E2E2E2E2E2E2E2E2E2E2E2F5F5F5F5F5F5F5F5F5F5F5F5F5F5F5F5F5F5E2F5F5E2F5F5F5F5F5E2E2E2F5F5F5
310
F5F5E2F5F5E2F5F5F5F5F5F5F5F5F5F5F5F5F5F5F5F5F5F5F5F5F5F5F5F5F5F5F5F5F5F5F5F5F5F5F5F5F5F5F5F5F5F5F5F5F5F5F5F5F5F5F5F5F5F5F5F5F5F5F5F5F5F5F5F5F5F5F5F5F5F5F5F5F5F5F5F5F5F5F5F5F5F5F5F5F5F5F5F5F5F5F5F5F5F5F5F5F5F5F5E2F5F5F5F5F5F5F5F5F5F5F5F5F5F5F5F5F5E2F5F5F5
310
F5F5E2E2E2E2E2E2E2E2E2E2E2F5F5F5F5F5F5F5F5F5F5F5F5F5F5F5F5F5F5F5F5F5F5F5F5F5E2F5F5E2F5F5F5F5F5E2E2E2F5F5F5F5F5F5F5F5E2F5F5F5F5F5F5F5F5F5F5F5F5F5F5F5F5F5F5F5F5F5F5F5F5F5F5F5F5F5F5F5F5F5F5F5F5F5F5F5F5F5F5F5F5F5F5F5F5F5F5F5F5F5F5F5F5F5F5F5F5F5F5F5F5F5F5F5F5
310
F5F5F5F5F5F5F5F5F5F5F5F5F5F5F5F5F5F5F5F5F5F5F5F5F5F5F5F5F5F5F5E2E2E2E2E2E2E2E2E2E2E2E2E2E2E2E2E2E2E2F5F5F5F5F5F5F5F5F5F5F5F5F5F5F5F5F5F5F5F5F5F5F5E2F5F5F5F5F5F5F5F5F5F5F5F5F5F5F5F5F5E2F5F5F5F5F5F5F5F5E2E2E2F5F5F5F5F5F5F5F5E2F5F5F5F5F5F5F5F5F5F5F5F5F5F5F5
310
F5F5F5F5F5F5F5F5F5F5F5F5F5F5F5F5F5F5F5F5F5F5F5F5F5F5F5F5F5F5F5F5F5F5F5F5F5F5F5F5F5F5F5F5F5F5F5F5F5F5F5F5F5F5F5F5F5F5F5F5F5F5F5F5F5F5F5F5F5F5F5F5F5F5F5F5F5F5F5F5F5F5F5F5E2F5F5F5F5F5F5F5F5F5F5F5F5F5F5F5F5F5E2F5F5F5F5F5E2E2E2E2E2E2E2E2E2F5E2E2E2E2E2E2E2E2E2
310
E2E2E2E2E2E2E2E2E2E2E2E2E2E2F5F5F5E2F5F5F5F5F5F5F5F5E2E2E2F5F5F5F5F5F5F5F5E2F5F5F5F5F5F5F5F5F5F5F5F5F5F5F5F5F5F5F5F5F5F5F5F5F5F5F5F5F5F5F5F5F5F5F5F5F5F5F5F5F5F5F5F5F5F5F5F5F5F5F5F5F5F5F5F5F5F5F5F5F5F5F5F5F5F5F5F5F5F5F5F5F5F5F5F5F5F5F5F5F5F5F5F5F5F5F5F5F5
310
F5F5F5F5F5F5F5F5F5F5E2F5F5F5F5F5F5F5F5F5F5F5F5F5F5F5F5F5E2F5F5F5F5F5E2E2F5E2E2E2E2E2E2E2E2E2E2E2E2E2E2E2E2E2E2E2E2E2E2E2E2E2E2E2E2E2E2F5F5F5E2F5F5F5F5F5F5F5F5E2E2E2F5F5F5F5F5F5F5F5E2F5F5F5F5F5F5F5F5F5F5F5F5F5F5F5F5F5F5F5F5F5F5F5F5F5F5F5F5F5F5F5F5F5F5F5F5
310
F5F5F5F5F5F5F5F5F5F5F5F5F5F5F5F5F5F5F5F5F5F5F5F5F5F5F5F5F5F5F5F5F5F5F5F5F5F5F5F5F5F5F5F5F5F5F5F5F5F5F5F5F5F5F5F5F5F5F5F5F5F5F5E2E2E2E2E2E2E2E2E2E2E2E2E2E2E2E2E2E2E2F5F5F5F5F5E2E2E2F5E2E2E2E2E2E2E2F5E2E2E2E2E2E2E2E2E2E2E2E2E2E2E2E2E2E2E2E2E2F5F5F5E2F5F5F5
310
F5F5F5F5F5E2E2E2F5F5F5F5F5F5F5F5E2F5F5F5F5F5F5F5F5F5F5F5F5F5F5F5F5F5F5F5F5F5F5F5F5F5F5F5F5F5F5F5F5F5F5F5F5F5F5F5F5F5F5F5F5F5F5F5F5F5F5F5F5F5F5F5F5F5F5F5F5F5F5F5F5F5F5F5F5F5F5F5F5F5F5F5F5F5F5F5F5F5F5F5F5F5F5F5F5F5F5F5F5F5F5F5F5F5F5F5E2F5F5F5F5F5F5F5F5F5F5
310
F5F5F5F5F5F5F5E2F5F5F5F5F5E2E2E2E2E2E2E2E2E2E2E2F5F5F5F5F5F5F5F5F5F5F5F5F5F5F5F5F5F5F5F5F5F5F5F5F5E2F5F5F5F5F5F5F5F5E2E2E2F5F5F5F5F5F5F5F5E2F5F5F5F5F5F5F5F5F5F5F5F5F5F5F5F5F5F5F5F5F5F5F5F5F5F5F5F5F5F5F5F5F5F5F5F5F5F5F5F5F5F5F5F5F5F5F5F5F5F5F5F5F5F5F5F5F5
310
F5F5F5F5F5F5F5F5F5F5F5F5F5F5F5F5F5F5F5F5F5F5F5F5F5F5F5F5F5F5F5F5F5F5F5F5F5F5F5F5F5F5E2F5F5F5F5F5F5F5F5F5F5F5F5F5F5F5F5F5E2E2E2F5F5F5F5F5F5F5F5F5F5F5F5F5F5F5F5F5F5F5F5F5F5F5F5F5F5F5F5F5F5F5F5F5F5F5F5F5F5F5E2F5F5F5F5F5F5F5F5E2E2E2F5F5F5F5F5F5F5F5E2F5F5F5F5
310
F5F5F5F5F5F5F5F5F5F5F5F5F5F5F5F5F5F5F5F5F5F5F5F5F5F5F5F5F5F5F5F5F5F5F5F5F5F5F5F5F5F5F5F5F5F5F5F5F5F5F5F5F5F5F5F5F5F5F5F5F5F5F5F5F5F5F5F5F5F5F5F5F5F5F5F5F5F5F5F5F5F5F5F5F5F5F5F5F5F5F5F5F5F5F5E2E2E2E2E2E2E2E2E2E2E2E2E2E2E2E2E2E2E2E2E2E2E2E2E2E2E2E2E2E2E2E2
310
E2E2E2E2E2E2E2E2E2E2E2E2E2E2E2E2E2E2E2E2E2E2E2E2E2E2E2E2E2F5F5F5F5F5F5F5F5E2E2E2F5F5F5F5F5F5F5F5E2F5F5F5F5F5F5F5F5F5F5F5F5F5F5F5F5F5F5F5F5F5F5F5F5F5F5F5F5F5F5F5F5F5F5F5F5F5F5F5F5F5F5F5F5F5F5F5F5F5F5F5F5F5F5F5F5F5F5F5F5F5F5F5F5F5F5F5F5F5F5F5F5F5F5F5F5F5F5
310
F5F5F5F5F5F5F5F5F5F5F5F5F5F5F5F5F5F5F5F5F5E2F5F5F5F5E2E2E2E2E2E2E2E2E2F5F5F5F5E2F5F5F5F5F5F5F5F5F5F5F5F5F5F5F5F5F5F5F5F5F5F5F5F5F5F5F5F5F5F5F5F5F5F5F5F5F5F5F5F5F5E2F5F5F5F5F5F5F5F5E2E2E2F5F5F5F5F5F5F5F5E2F5F5F5F5F5F5F5F5F5F5F5F5F5F5F5F5F5F5F5F5F5F5F5F5F5
310
F5F5F5F5F5F5F5F5F5F5F5F5F5F5F5F5F5F5F5F5F5F5F5F5F5F5F5F5F5F5F5F5F5F5F5F5F5F5F5F5F5F5F5F5F5F5F5F5F5F5F5F5F5F5F5F5F5F5F5F5F5F5F5F5F5F5F5F5F5F5F5F5F5F5E2E2E2F5F5F5F5F5F5F5F5F5F5F5F5F5F5F5E2F5F5E2E2E2E2E2E2E2E2E2E2E2E2E2E2E2E2E2E2E2E2E2E2E2E2E2E2E2E2E2E2E2E2
310
E2F5F5F5F5F5F5E2F5F5F5F5F5F5F5F5E2E2E2F5F5F5F5F5E2F5F5E2F5F5F5F5F5F5F5F5F5F5F5F5F5F5F5F5F5F5F5F5F5F5F5F5F5F5F5F5F5F5F5F5F5F5F5F5F5F5F5F5F5F5F5F5F5F5F5F5F5F5F5F5F5F5F5F5F5F5F5F5F5F5F5F5F5F5F5F5F5F5F5F5F5F5F5F5F5F5F5F5F5F5F5F5F5F5F5F5F5F5F5F5F5F5F5F5F5F5F5
310
E2E2E2E2E2E2E2E2E2E2E2E2E2E2E2E2E2E2E2F5F5E2E2E2E2E2E2E2E2E2E2E2E2E2E2E2E2E2E2E2E2E2E2E2E2E2E2E2E2E2E2E2E2E2F5F5F5F5F5F5E2F5F5E2F5F5F5F5F5E2E2E2F5F5F5F5F5E2E2E2E2F5F5F5F5F5F5F5F5F5F5F5F5F5F5F5F5F5F5F5F5F5F5F5F5F5F5F5F5F5F5F5F5F5F5F5F5F5F5F5F5F5F5F5F5F5F5
310
F5F5F5F5F5F5F5F5F5F5F5F5F5F5F5F5F5F5F5F5F5F5F5F5F5F5F5F5F5F5F5F5F5F5F5F5F5F5F5F5F5F5F5F5F5F5F5F5F5F5F5F5F5E2F5F5F5F5F5E2E2E2E2E2E2F5F5F5F5F5F5E2F5F5F5F5F5F5F5F5F5F5F5F5F5F5F5F5F5F5F5F5F5F5F5F5F5F5F5F5F5F5F5F5F5F5F5F5F5F5F5F5F5E2E2E2E2F5F5F5F5F5E2E2E2F5F5
310
F5F5F5E2E2E2E2F5F5F5F5F5F5F5F5F5F5F5F5F5F5F5F5F5F5F5F5F5F5F5F5F5F5F5F5F5F5F5F5F5F5F5F5F5F5F5F5F5F5F5F5F5F5F5F5F5F5F5F5F5F5F5F5F5F5F5F5F5F5F5F5F5F5F5F5F5F5F5F5F5F5F5F5F5F5F5F5F5F5F5F5F5F5F5F5F5F5F5F5F5F5F5F5F5F5F5E2E2E2F5F5F5F5F5F5F5F5F5F5F5F5F5F5F5E2E2E2
310
F5F5F5F5F5F5F5F5F5F5F5F5F5F5F5F5F5F5F5F5F5F5F5F5F5F5F5F5F5F5F5F5F5F5F5F5F5F5F5E2E2E2E2F5F5F5F5F5E2E2E2F5F5F5F5F5E2F5F5E2F5F5F5F5F5F5F5F5F5F5F5F5F5F5F5F5F5F5F5F5F5F5F5F5F5F5F5F5F5F5F5F5F5F5F5F5F5F5F5F5F5F5F5F5F5F5F5F5F5F5F5F5F5F5F5F5F5F5F5F5F5F5F5F5F5F5F5
310
F5F5F5F5F5F5F5F5F5F5F5F5F5F5F5F5F5F5F5F5F5F5F5F5F5F5F5F5F5F5F5F5E2E2E2E2E2E2E2E2E2E2E2E2E2E2E2E2E2E2E2E2E2E2E2E2E2E2E2E2E2E2E2E2E2E2E2E2E2E2E2E2E2E2E2E2E2E2E2E2E2E2E2E2E2E2E2E2E2E2E2E2E2F5F5E2F5F5F5F5F5E2E2E2F5F5F5F5F5E2F5F5E2F5F5F5F5F5F5F5F5F5F5F5F5F5F5
310
F5F5F5F5F5F5F5F5F5F5F5F5F5F5F5F5F5F5F5F5F5F5F5F5F5F5F5F5F5F5F5F5F5F5F5F5F5F5F5F5F5F5F5F5F5F5F5F5F5F5F5F5F5F5F5F5F5F5F5F5F5F5F5F5F5F5F5F5F5F5F5F5F5F5F5F5F5F5F5F5F5F5F5F5F5E2F5F5F5F5F5E2F5F5F5F5F5E2E2F5F5F5F5E2F5F5F5F5F5F5F5F5F5F5F5F5F5F5F5F5F5F5F5F5F5F5F5
310
F5F5F5F5F5F5F5F5F5F5F5F5F5F5F5F5F5F5E2F5F5E2F5F5F5F5F5E2E2E2F5F5F5F5F5E2F5F5E2F5F5F5F5F5F5F5F5F5F5F5F5F5F5F5F5F5F5F5F5F5F5F5F5F5F5F5F5F5F5F5F5F5F5F5F5F5F5F5F5F5F5F5F5F5F5F5F5F5F5F5F5F5F5F5F5F5F5F5F5F5F5F5F5F5F5F5F5F5F5F5F5F5F5F5F5F5F5F5F5F5F5F5F5F5F5F5F5
310
F5F5F5F5F5F5F5F5F5F5F5E2F5F5F5F5E2E2E2E2E2E2E2F5E2F5F5F5F5E2F5F5E2E2E2E2E2E2E2E2E2E2E2E2E2E2E2E2E2E2E2E2E2E2E2E2E2E2E2E2E2E2E2F5F5F5F5F5F5F5F5E2F5F5E2F5F5F5F5F5E2E2E2F5F5F5F5F5E2F5F5E2F5F5F5F5F5F5F5F5F5F5F5F5F5F5F5F5F5F5F5F5F5F5F5F5F5F5F5F5F5F5F5F5F5F5F5
310
F5F5F5F5F5F5F5F5F5F5F5F5F5F5F5F5F5F5F5F5F5F5F5F5F5F5F5F5F5F5F5F5F5F5F5F5F5F5F5F5F5F5F5F5F5F5F5F5F5F5F5F5F5F5F5F5F5F5F5F5F5F5F5F5E2F5F5F5E2E2E2E2E2E2E2E2E2E2E2F5F5F5E2F5F5E2E2E2E2E2E2E2E2E2E2E2E2E2E2E2E2E2E2E2E2E2E2E2E2E2E2E2E2E2E2E2F5F5F5F5F5F5F5F5E2F5F5
310
E2F5F5F5F5F5E2E2E2F5F5F5F5F5E2F5F5E2F5F5F5F5F5F5F5F5F5F5F5F5F5F5F5F5F5F5F5F5F5F5F5F5F5F5F5F5F5F5F5F5F5F5F5F5F5F5F5F5F5F5F5F5F5F5F5F5F5F5F5F5F5F5F5F5F5F5F5F5F5F5F5F5F5F5F5F5F5F5F5F5F5F5F5F5F5F5F5F5F5F5F5F5F5F5F5F5F5F5F5F5F5F5F5F5F5F5F5E2F5F5F5F5E2E2E2E2E2
310
E2F5F5E2F5F5F5F5E2F5F5F5F5F5F5F5F5F5F5F5F5F5F5F5F5F5F5F5F5F5F5F5F5F5F5F5F5F5F5F5F5F5F5F5F5F5F5F5F5F5E2F5F5E2F5F5F5F5F5E2E2E2F5F5F5F5F5E2F5F5E2F5F5F5F5F5F5F5F5F5F5F5F5F5F5F5F5F5F5F5F5F5F5F5F5F5F5F5F5F5F5F5F5F5F5F5F5F5F5F5F5F5F5F5F5F5F5F5F5F5F5F5F5F5F5F5F5
310
F5F5F5F5F5F5F5F5F5F5F5F5F5F5F5F5F5F5F5F5F5F5F5F5F5F5F5F5F5F5F5F5F5F5F5F5F5F5F5F5F5F5F5E2E2E2F5F5E2E2E2F5F5F5E2E2E2F5F5F5F5E2E2E2F5F5F5F5F5F5F5F5F5F5F5F5F5F5F5F5F5F5F5F5F5F5F5F5F5F5F5F5F5F5F5F5F5F5F5F5F5F5F5E2F5F5E2F5F5F5F5F5E2E2E2F5F5F5F5F5E2F5F5E2F5F5F5
310
F5F5F5F5F5F5F5F5F5F5F5F5F5F5F5F5F5F5F5F5F5F5F5F5F5F5F5F5F5F5F5F5F5F5F5F5F5F5F5F5F5F5F5F5F5F5F5F5F5F5F5F5F5F5F5F5F5F5F5F5F5F5F5F5F5F5F5F5F5F5F5F5F5F5F5F5F5F5F5F5F5F5F5F5F5F5F5F5F5F5F5F5F5F5F5F5E2E2E2E2E2E2E2E2E2E2E2E2E2E2E2E2E2E2E2E2E2E2E2E2E2E2E2E2E2E2E2
310
E2E2E2E2E2E2E2E2E2E2E2E2E2E2E2E2E2E2E2E2E2E2E2E2E2E2E2E2E2E2F5F5E2F5F5F5F5F5E2E2E2F5F5F5F5F5E2F5F5E2F5F5F5F5F5F5F5F5F5F5F5F5F5F5F5F5F5F5F5F5F5F5F5F5F5F5F5F5F5F5F5F5F5F5F5F5F5F5F5F5F5F5F5F5F5F5F5F5F5F5F5F5F5F5F5F5F5F5F5F5F5F5F5F5F5F5F5F5F5F5F5F5F5F5F5F5F5
310
F5F5F5F5F5F5F5F5F5F5F5F5F5F5F5F5F5F5F5F5F5F5F5F5F5F5F5F5F5F5F5F5F5F5F5F5F5F5F5F5F5F5F5F5F5F5F5F5F5F5F5F5F5F5F5F5F5F5F5F5F5F5F5F5F5F5F5F5F5F5F5F5F5F5F5F5F5F5F5F5F5F5E2F5F5E2F5F5F5F5F5E2E2E2F5F5F5F5F5E2F5F5E2F5F5F5F5F5F5F5F5F5F5F5F5F5F5F5F5F5F5F5F5F5F5F5F5
310
F5F5F5F5F5F5F5F5F5F5F5F5F5F5F5F5F5F5F5F5F5F5F5F5F5F5F5F5F5F5F5F5F5F5F5F5F5F5F5F5F5F5F5F5F5F5F5F5F5F5F5F5F5F5F5F5F5F5F5F5F5F5F5F5F5F5F5F5F5F5F5F5F5F5F5F5F5F5F5F5F5F5F5F5F5F5F5F5F5F5F5F5F5F5F5F5F5F5F5F5F5F5F5F5F5F5F5F5F5F5F5F5F5F5F5F5F5F5F5F5F5F5F5F5F5F5F5
310
F5F5F5F5F5F5F5F5E2F5F5E2F5F5F5F5F5E2E2E2F5F5F5F5F5E2F5F5E2F5F5F5F5F5F5F5F5F5F5F5F5F5F5F5F5F5F5F5F5F5F5F5F5F5F5F5F5F5F5F5F5F5F5F5F5F5F5F5F5F5F5F5F5F5F5F5F5F5F5F5F5F5F5F5F5F5F5F5F5F5F5F5F5F5F5F5F5F5F5F5F5F5F5F5F5F5F5F5F5F5F5F5F5F5F5F5F5F5F5F5F5F5F5F5F5F5F5
310
F5F5F5F5F5F5F5F5F5F5F5F5F5F5F5F5F5F5F5F5F5F5F5F5F5F5F5F5F5F5F5F5F5F5F5F5F5F5F5F5F5F5F5F5F5F5F5F5F5F5F5F5F5F5F5F5F5F5F5F5F5E2F5F5E2F5F5F5F5F5E2E2E2F5F5F5F5F5E2F5F5E2F5F5F5F5F5F5F5F5F5F5F5F5F5F5F5F5F5F5F5F5F5F5F5F5F5F5F5F5F5F5F5F5F5F5F5F5F5F5F5F5F5F5F5F5F5
310
F5F5F5F5F5F5F5F5F5F5F5F5F5F5F5F5F5F5F5F5F5F5F5F5F5F5F5F5F5F5F5F5F5F5F5F5F5F5F5F5F5F5F5F5F5F5F5F5F5F5F5F5F5F5F5F5F5F5F5F5F5F5F5F5F5F5F5F5F5F5F5F5F5F5F5F5F5F5F5F5F5F5F5F5F5F5F5F5F5F5F5F5F5F5F5F5F5F5F5F5F5F5F5F5F5F5F5F5F5F5F5F5F5F5E2F5F5E2F5F5F5F5F5E2E2E2F5
310
F5F5F5F5E2F5F5E2F5F5F5F5F5F5F5F5F5F5F5F5F5F5F5F5F5F5F5F5F5F5F5F5F5F5F5F5F5F5F5F5F5F5F5F5F5F5F5F5F5F5F5F5F5F5F5F5F5F5F5F5F5F5F5F5F5F5F5F5F5F5F5F5F5F5F5F5F5F5F5F5F5F5F5F5F5F5F5F5F5F5F5F5F5F5F5F5F5F5F5F5F5F5F5F5F5F5F5F5F5F5F5F5F5F5F5F5F5F5F5F5F5F5F5F5F5F5F5
310
F5F5F5F5F5F5F5F5F5F5F5F5F5F5F5F5F5F5F5F5F5F5F5F5F5F5F5F5F5F5F5F5F5F5F5F5F5F5F5F5E2F5F5E2F5F5F5F5F5E2E2E2F5F5F5F5F5E2E2E2E2F5F5F5F5F5F5F5F5F5F5F5F5F5F5F5F5F5F5F5F5F5F5F5F5F5F5F5F5F5F5F5F5F5F5F5F5F5F5F5F5F5F5F5F5F5F5F5F5F5F5F5F5F5F5F5F5F5F5F5F5F5F5F5F5F5F5
310
F5F5F5F5F5F5F5F5F5F5F5F5F5F5F5F5F5F5F5F5F5F5F5F5F5F5F5F5F5F5F5F5F5F5F5F5F5F5F5F5F5F5F5F5F5F5F5F5F5F5F5F5F5F5F5F5F5F5F5F5F5F5F5F5F5F5F5F5F5F5F5F5F5F5F5F5F5F5F5F5F5F5F5F5F5F5F5F5F5F5F5F5F5E2E2E2E2F5F5F5F5F5E2E2E2F5F5F5F5F5F5F5F5E2F5F5F5F5F5F5F5F5F5F5F5F5F5
310
F5F5F5F5F5F5F5F5F5F5F5F5F5F5F5F5F5F5F5F5F5F5F5F5F5F5F5F5F5F5F5F5F5F5F5F5F5F5F5F5F5F5F5F5F5F5F5F5F5F5F5F5F5F5F5F5F5F5F5F5F5F5F5F5F5F5F5F5F5F5F5F5F5F5F5F5F5F5F5F5F5F5F5F5F5F5F5F5F5F5F5F5F5F5F5F5F5F5F5F5F5F5F5F5F5F5F5F5F5F5F5F5F5F5F5F5F5F5F5F5F5F5F5F5F5F5F5
310
F5F5F5F5F5F5F5F5F5F5F5F5F5F5F5F5F5F5F5E2F5F5F5F5F5F5F5F5E2E2E2F5F5F5F5F5F5F5F5E2F5F5F5F5F5F5F5F5F5F5F5F5F5F5F5F5F5F5F5F5F5F5F5F5F5F5F5F5F5F5F5F5F5F5F5F5F5F5F5F5F5F5F5F5F5F5F5F5F5F5F5F5F5F5F5F5F5F5F5F5F5F5F5F5F5F5F5F5F5F5F5F5F5F5F5F5F5F5F5F5F5F5F5F5F5F5F5
310
F5F5F5F5F5F5F5F5F5F5F5F5F5F5F5F5F5F5F5F5F5F5F5F5F5F5F5F5F5F5F5F5F5F5F5F5F5F5F5F5F5F5F5F5F5F5F5F5F5F5F5F5F5F5F5F5F5F5F5F5F5F5F5F5F5F5F5F5F5F5F5F5E2F5F5F5F5F5F5F5F5E2E2E2F5F5F5F5F5F5F5F5E2F5F5F5F5F5F5F5F5F5F5F5F5F5F5F5F5F5F5F5F5F5F5F5F5F5F5F5F5F5F5F5F5F5F5
310
F5F5F5F5F5F5F5F5F5F5F5F5F5F5F5F5F5F5F5F5F5F5F5F5F5F5F5F5F5F5F5F5F5F5F5F5F5F5F5F5F5F5F5F5F5F5F5F5F5F5F5F5F5F5F5F5F5F5F5F5F5F5F5F5F5F5F5F5F5F5F5F5F5F5F5F5F5F5F5F5F5F5F5F5F5F5F5F5F5F5F5F5F5F5F5F5F5F5F5F5F5F5F5F5F5F5F5F5F5F5F5F5F5F5F5F5F5F5F5F5F5F5F5F5F5E2F5
310
F5F5F5F5F5F5F5E2E2E2F5F5F5F5F5F5F5F5E2F5F5F5F5F5F5F5F5F5F5F5F5F5F5F5F5F5F5F5F5F5F5F5F5F5F5F5F5F5F5F5F5F5F5F5F5F5F5F5F5F5F5F5F5F5F5F5F5F5F5F5F5F5F5F5F5F5F5F5F5F5F5F5F5F5F5F5F5F5F5F5F5F5F5F5F5F5F5F5F5F5F5F5F5F5F5F5F5F5F5F5F5F5F5F5F5F5F5F5F5F5F5F5F5F5F5F5F5
310
F5F5F5F5F5F5F5F5F5F5F5F5F5F5F5F5F5F5F5F5F5F5F5F5F5F5F5F5F5F5F5F5F5F5F5F5F5F5F5F5F5F5F5F5F5F5F5F5F5F5F5E2F5F5F5F5F5F5F5F5E2E2E2F5F5F5F5F5F5F5F5E2F5F5F5F5F5F5F5F5F5F5F5F5F5F5F5F5F5F5F5F5F5F5F5F5F5F5F5F5F5F5F5F5F5F5F5F5F5F5F5F5F5F5F5F5F5F5F5F5F5F5F5F5F5F5F5
310
F5F5F5F5F5F5F5F5F5F5F5F5F5F5F5F5F5F5F5F5F5F5F5F5F5F5F5F5F5F5F5F5F5F5F5F5F5F5F5F5F5F5F5F5F5F5F5F5F5F5F5F5F5F5F5F5F5F5F5F5F5F5F5F5F5F5F5F5F5F5F5F5F5F5F5F5F5F5F5F5F5F5F5F5F5F5F5F5F5F5F5F5F5F5F5F5F5F5F5F5F5F5F5F5E2F5F5F5F5F5F5F5F5E2E2E2F5F5F5F5F5F5F5F5E2F5F5
310
F5F5F5F5F5F5F5F5F5F5F5F5F5F5F5F5F5F5F5F5F5F5F5F5F5F5F5F5F5F5F5F5F5F5F5F5F5F5F5F5F5F5F5F5F5F5F5F5F5F5F5F5F5F5F5F5F5F5F5F5F5F5F5F5F5F5F5F5F5F5F5F5F5F5F5F5F5F5F5F5F5F5F5F5F5F5F5F5F5F5F5F5F5F5F5F5F5F5F5F5F5F5F5F5F5F5F5F5F5F5F5F5F5F5F5F5F5F5F5F5F5F5F5F5F5F5F5
310
F5F5F5F5F5F5F5F5F5F5F5F5F5F5F5F5F5F5F5F5F5F5F5F5F5F5F5F5F5F5E2F5F5F5F5F5F5F5F5E2E2E2F5F5F5F5F5F5F5F5E2F5F5F5F5F5F5F5F5F5F5F5F5F5F5F5F5F5F5F5F5F5F5F5F5F5F5F5F5F5F5F5F5F5F5F5F5F5F5F5F5F5F5F5F5F5F5F5F5F5F5F5F5F5F5F5F5F5F5F5F5F5F5F5F5F5F5F5F5F5F5F5F5F5F5F5F5
310
F5F5F5F5F5F5F5F5F5F5F5F5F5F5F5F5F5F5F5F5F5F5F5F5F5F5F5F5F5F5F5F5F5F5F5F5F5F5F5F5F5F5F5F5F5F5F5F5F5F5F5F5F5F5F5F5F5F5F5F5F5F5F5F5F5F5F5F5F5F5F5F5F5F5F5F5F5F5F5F5F5F5F5E2F5F5F5F5F5F5F5F5E2E2E2F5F5F5F5F5E2F5F5E2F5F5F5F5F5F5F5F5F5F5F5F5F5F5F5F5F5F5F5F5F5F5F5
310
F5F5F5F5F5F5F5F5F5F5F5F5F5F5F5F5F5F5F5F5F5F5F5F5F5F5F5F5F5F5F5F5F5F5F5F5F5F5F5F5F5F5F5F5F5F5F5F5F5F5F5F5F5F5F5F5F5F5F5F5F5F5F5F5F5F5F5F5F5F5F5F5F5F5F5F5F5F5F5F5F5F5F5F5F5F5F5F5F5F5F5F5F5F5F5F5F5F5F5F5F5F5F5F5F5F5F5F5F5F5F5F5F5F5F5F5F5F5F5F5F5F5F5F5F5F5F5
310
F5F5F5F5F5F5F5F5F5E2F5F5E2F5F5F5F5F5E2E2E2F5F5F5F5F5E2F5F5E2F5F5F5F5F5F5F5F5F5F5F5F5F5F5F5F5F5F5F5F5F5F5F5F5F5F5F5F5F5F5F5F5F5F5F5F5F5F5F5F5F5F5F5F5F5F5F5F5F5F5F5F5F5F5F5F5F5F5F5F5F5F5F5F5F5F5F5F5F5F5F5F5F5F5F5F5F5F5F5F5F5F5F5F5F5F5F5F5F5F5F5F5F5F5F5F5F5
310
F5F5F5F5F5F5F5F5F5F5F5F5F5F5F5F5F5F5F5F5F5F5F5F5F5F5F5F5F5F5F5F5F5F5F5F5F5F5F5F5F5F5F5F5F5F5F5F5F5F5F5F5F5F5F5F5F5F5F5F5F5F5E2F5F5E2F5F5F5F5F5E2E2E2F5F5F5F5F5E2F5F5E2F5F5F5F5F5F5F5F5F5F5F5F5F5F5F5F5F5F5F5F5F5F5F5F5F5F5F5F5F5F5F5F5F5F5F5F5F5F5F5F5F5F5F5F5
310
F5F5F5F5F5F5F5F5F5F5F5F5F5F5F5F5F5F5F5F5F5F5F5F5F5F5F5F5F5F5F5F5F5F5F5F5F5F5F5F5F5F5F5F5F5F5F5F5F5F5F5F5F5F5F5F5F5F5F5F5F5F5F5F5F5F5F5F5F5F5F5F5F5F5F5F5F5F5F5F5F5F5F5F5F5F5F5F5F5F5F5F5F5F5F5F5F5F5F5F5F5F5F5F5F5F5F5F5F5F5F5F5F5F5F5E2F5F5E2F5F5F5F5F5E2E2E2
310
F5F5F5F5F5E2F5F5E2F5F5F5F5F5F5F5F5F5F5F5F5F5F5F5F5F5F5F5F5F5F5F5F5F5F5F5F5F5F5F5F5F5F5F5F5F5F5F5F5F5F5F5F5F5F5F5F5F5F5F5F5F5F5F5F5F5F5F5F5F5F5F5F5F5F5F5F5F5F5F5F5F5F5F5F5F5F5F5F5F5F5F5F5F5F5F5F5F5F5F5F5F5F5F5F5F5F5F5F5F5F5F5F5F5F5F5F5F5F5F5F5F5F5F5F5F5F5
310
F5F5F5F5F5F5F5F5F5F5F5F5F5F5F5F5F5F5F5F5F5F5F5F5F5F5F5F5F5F5F5F5F5F5F5F5F5F5F5F5F5E2F5F5E2F5F5F5F5F5E2E2E2F5F5F5F5F5E2F5F5E2F5F5F5F5F5F5F5F5F5F5F5F5F5F5F5F5F5F5F5F5F5F5F5F5F5F5F5F5F5F5F5F5F5F5F5F5F5F5F5F5F5F5F5F5F5F5F5F5F5F5F5F5F5F5F5F5F5F5F5F5F5F5F5F5F5
310
F5F5F5F5F5F5F5F5F5F5F5F5F5F5F5F5F5F5F5F5F5F5F5F5F5F5F5F5F5F5F5F5F5F5F5F5F5F5F5F5F5F5F5F5F5F5F5F5F5F5F5F5F5F5F5F5F5F5F5F5F5F5F5F5F5F5F5F5F5F5F5F5F5F5F5F5F5F5F5F5F5F5F5F5F5F5F5F5F5F5F5F5F5F5E2F5F5E2F5F5F5F5F5E2E2E2F5F5F5F5F5E2E2E2E2F5F5F5F5F5F5F5F5F5F5F5F5
310
F5F5F5F5F5F5F5F5F5F5F5F5F5F5F5F5F5F5F5F5F5F5F5F5F5F5F5F5F5F5F5F5F5F5F5F5F5F5F5F5F5F5F5F5F5F5F5F5F5F5F5F5F5F5F5F5F5F5F5F5F5F5F5F5F5F5F5F5F5F5F5F5F5F5F5F5F5F5F5F5F5F5F5F5F5F5F5F5F5F5F5F5F5F5F5F5F5F5F5F5F5F5F5F5F5F5F5F5F5F5F5F5F5F5F5F5F5F5F5F5F5F5F5F5F5F5F5
310
F5F5F5F5F5F5F5F5F5F5F5F5F5F5F5F5F5F5F5F5E2E2E2E2F5F5F5F5F5E2E2E2F5F5F5F5F5E2E2E2E2F5F5F5F5F5F5F5F5F5F5F5F5F5F5F5F5F5F5F5F5F5F5F5F5F5F5F5F5F5F5F5F5F5F5F5F5F5F5F5F5F5F5F5F5F5F5F5F5F5F5F5F5F5F5F5F5F5F5F5F5F5F5F5F5F5F5F5F5F5F5F5F5F5F5F5F5F5F5F5F5F5F5F5F5F5F5
310
F5F5F5F5F5F5F5F5F5F5F5F5F5F5F5F5F5F5F5F5F5F5F5F5F5F5F5F5F5F5F5F5F50F0F0F0FF5F5F5F5F5F5F5F5F5F5F5F5F5F5F5F5F5F5F5F5F5F5F5F5F5F5F5F5F5F5F5F5F5F5F5F5E2E2E2E2F5F5F5F5F5E2E2E2F5F5F5F5F5E2F5F5E2F5F5F5F5F5F5F5F5F5F5F5F5F5F5F5F5F5F5F5F5F5F5F5F5F5F5F5F5F5F5F5F5F5
310
F5F5F5F5F5F5F5F5F5F5F5F5F5F5F5F5BEF5F5F5F5F5F5F5F5F5F5F5F5F5F5F5F5F5F5F5F5F5F5F5F5F5F5F5F5F5F5F5F5F5F5F5F5F5F5F5F5F5F5F5F5F5F5F5F5F5F5F5F5F5F5F5F5F5F5F5F5F5F5F5F50F0F0F0F0F0F0F0F0FF5F5F5F5F5F5F5F5F5F5F5F5F5F5F5F5F5F5F5F5F5F5F5F5F5F5F5F5F5F5F5F5F5F5F5F5E2
310
F5F5E2F5F5F5F5F5E2E2E2F5F5F5F5F5E2F5F5E2F5F5F5F5F5F5F5F5F5F5F5F5F5F5F5F5F5F5F5F5F5F5F5F5F5F5F5F5F5F5F5F5F5F5F5F5F5F5F5F5F5F5F5F5F5F5F5F5F5BEF5F5F5F5F5F5F5F5F5F5F5F5F5F5F5F5F5F5F5F5F5F5F5F5F5F5F5F5F5F5F5F5F5F5F5F5F5F5F5F5F5F5F5F5F5F5F5F5F5F5F5F5F5F5F5F5F5
310
F5F5F5F5F5F50FF5F5F5F5F50F0F0F0FF5F5F5F5F5F5F5F5F5F5F5F5F5F5F5F5F5F5F5F5F5F5F5F5F5F5F5F5F5F5F5F5F5F5F5F5E2F5F5E2F5F5F5F5F5E2E2E2F5F5F5F5F5E2F5F5E2F5F5F5F5F5F5F5F5F5F5F5F5F5F5F5F5F5F5F5F5F5F5F5F5F5F5F5F5F5F5F5F5F5F5F5F5F5F5F5F5F5F5F5F5F5F5F5F5F5BEF5F5F5F5
310
F5F5F5F5F5F5F5F5F5F5F5F5F5F5F5F5F5F5F5F5F5F5F5F5F5F5F5F5F5F5F5F5F5F5F5F5F5F5F5F5F5F5F5F5F5F5F5F5F5F5F5F5F5F5F5F5F5F50FF5F5F5F5F5F5F5F5F5F5F5F5F5F5F5F5F5F5F5F5F5F5F5F5F5F5F5F5F5F5F5F5F5F5F5F5F5F5F5F5F5F5F5F5F5F5E2F5F5E2F5F5F5F5F5E2E2E2F5F5F5F5F5E2F5F5E2F5
310
F5F5F5F5F5F5F5F5F5F5F5F5F5F5F5F5F5F5F5F5F5F5F5F5F5F5F5F5F5F5F5F5F5F5F5F5F5F5F5F5F5F5F5F5F5F5F5F5BEF5F5F5F5F5F5F5F5F5F5F5F5F5F5F5F5F5F5F5F5F5F5F5F5F5F5F5F5F5F5F5F5F5F5F5F5F5F5F5F5F5F5F5F5F5F5F5F5F5F5F5F5F5F5F5F5F5F5F5F5F50FF5F5F5F5F5F5F5F5F5F5F5F5F5F5F5F5
310
F5F5F5F5F5F5F5F5F5F5F5F5F5F5F5F5F5F5F5F5F5F5F5F5F5F5F5F5F5F5F5E2F5F5E2F5F5F5F5F5E2E2E2F5F5F5F5F5E2F5F5E2F5F5F5F5F5F5F5F5F5F5F5F5F5F5F5F5F5F5F5F5F5F5F5F5F5F5F5F5F5F5F5F5F5F5F5F5F5F5F5F5F5F5F5F5F5E2E2E2E2E2E2E2E2F5F5F5F5F5F5F5F5F5F5F5F5F5F5F5F5F5F5F5F5F5F5
310
F5F5F5F5F5E2E2E2E2E2E2F5F5F5F5F5F5F5F5F5F5F5F5F5F5F5F5F5F5F5F5F5F5F5F50FF5F5F5F5F5F5F5F5F5F5F5F5F5F5F5F5F5F5F5F5F5F5F5F5F5F5F5F5F5F5F5F5F5F5F5F5F5F5F5F5F5F5F5F5F5F5F5F5E2F5F5E2F5F5F5F5F5E2E2E2F5F5F5F5F5E2F5F5E2F5F5F5F5F5F5F5F5F5F5F5F5F5F5F5F5F5F5F5F5F5F5
310
F5F5F5F5F5F5F5F5F5F5F5F5F5F5F5F5F5F5F5F5F5F5E2E2F5F5F5BEF5F5F5E2E2F5F5F5F5F5F5F5F5F5F5F5F5F5F5F5F5F5F5F5F5F5F5F5F5F5E2F5F5F5F5E2F5F5F5F5F5F5F5F5F5F5F5F5F5F5F5F5F5F5F5F5F5F5F50FF5F5F5F5F5F5F5F5F5F5F5F5F5F5F5F5F5F5F5F5F5F5F5F5F5F5F5F5F5F5F5F5F5F5F5F5F5F5F5
310
F5F5F5F5F5F5F5F5F5F5E2F5F5E2F5F5F5F5F5E2E2E2F5F5F5F5F5E2F5F5E2F5F5F5F5F5F5F5F5F5F5F5F5F5F5F5F5F5F5F5F5F5F5F5F5F5F5F5F5F5F5F5F5F5F5F5F5F5F5F5F5F5F5F5E2F5F5F5F5F5BEF5F5F5F5E2E2F5F5F5F5F5F5F5F5F5F5F5F5F5F5F5F5F5F5F5F5F5F5F5E2E2F5F5F5F5E2F5F5F5F5F5F5F5F5F5F5
310
F5F5F5F5F5F5F5F5F5F5F5F50FF5F5F5F5F5F5F5F5F5F5F5F5F5F5F5F5F5F5F5F5F5F5F5F5F5F5F5F5F5F5F5F5F5F5F5F5F5F5F5F5F5F5F5F5F5F5F5F5F5F5E2F5F5E2F5F5F5F5F5E2E2E2F5F5F5F5F5E2F5F5E2F5F5F5F5F5F5F5F5F5F5F5F5F5F5F5F5F5F5F5F5F5F5F5F5F5F5F5F5F5F5F5F5F5F5F5F5F5F5F5F5F5F5E2
310
F5F5F5F5F5F5BEF5F5F5F5F5E2E2F5F5F5F5F5F5F5F5F5F5F5F5F5F5F5F5F5F5F5F5F5F5E2F5F5F5F5F5E2E2E2E2E2E2E2E2E2E2E2E2E2E2E2E2E2E2E2E2E2E2E2E2E2E2E2E2E2E2E2E2E2E2E2E2F5F5F5F5F5F5F5F5F5F5F5F5F5F5F5F5F5F5F5F5F5F5F5F5F5F5F5F5F5F5F5F5F5F5F5F5F5F5E2F5F5E2F5F5F5F5F5E2E2
310
E2F5F5F5F5F5F5F5F5E2F5F5F5F5F5F5F5F5F5F5F5F5F5F5F5F5F5F5F5F5F5F5F5F5F5F5F5F5F5F5F5F5F5F5F5F5F5F5F5F5F5E2F5F5F5F5F5F5E2E2F5F5F5F5F5F5E2F5F5F5F5F5F5F5F5F5F5F5F5F5F5F5F5F5F5F5F5F5F5ECF5F5F5F5F5E2F5F5F5F5F5F5F5F5E2E2E2E2E2E2E2E2E2E2E2E2E2E2E2E2E2E2E2E2E2E2E2
310
E2E2E2E2E2F5F5F5F5F5F5F5F5F5F5F5F5F5F5F5F5F5F5F5F5F5F5F5F5F5F5F5F5F5F5F5F5F5F5F5F5F5E2F5F5F5F5F5F5F5F5E2E2E2F5F5F5F5F5F5F5F5E2F5F5F5F5F5F5F5F5F5F5F5F5F5F5F5F5F5F5F5F5F5F5F5F5F5F5F5F5F5F5F5F5F5F5F5F5F5F5F5F5F5E2F5F5F5F5F5F5E2E2F5F5F5F5F5F5E2E2F5F5F5F5F5F5
310
F5F5F5F5F5F5F5F5F5F5F5F5F5F5E2F5ECECF5F5F5E2F5F5F5F5F5F5F5F5E2F5F5F5F5F5F5F5F5F5F5F5F5F5F5F5F5F5F5F5F5F5F5F5F5F5E2E2F5F5F5F5F5F5F5F5F5F5F5F5F5F5F5F5F5F5F5F5F5F5F5F5F5F5F5F5F5F5F5F5F5F5F5F5F5E2F5F5F5F5F5F5F5F5E2E2E2F5F5F5F5F5F5F5F5E2F5F5F5F5F5F5F5F5F5F5F5
310
F5F5F5F5F5F5F5F5F5F5F5F5F5F5F5F5F5F5F5F5F5F5F5F5F5F5F5F5F5F5E2F5F5F5F5F5F5E2E2F5F5F5F5F5F5F5E2F5F5F5F5F5F5F5F5F5F5F5F5F5F5F5F5F5F5F5F5E2F5F5F5ECECF5E2F5F5F5F5F5F5F5F5E2F5F5F5F5F5F5F5F5F5F5F5F5F5F5F5F5F5F5F5F5F5F5F5F5F5E2E2F5F5F5F5F5F5F5F5F5F5F5F5F5F5F5F5
310
F5F5F5F5F5F5F5F5F5F5F5F5F5F5F5F5F5F5F5F5F5E2F5F5F5F5F5F5F5F5E2E2E2F5F5F5F5F5F5F5F5E2F5F5F5F5F5F5F5F5F5F5F5F5F5F5F5F5F5F5F5F5F5F5F5F5F5F5F5F5F5F5F5F5F5F5F5F5F5F5F5F5E2E2F5F5F5F5F5E2E2BEE2E2F5F5F5F5F5E2F5F5F5F5F5F5F5F5F5F5F5F5F5F5F5F5F5F5F5F5E2F5F5F5F5F5EC
310
E2F5F5F5F5F5F5F5F5E2F5F5F5F5F5F5F5F5F5F5F5F5F5F5F5F5F5F5F5F5F5F5F5F5F5E2E2F5F5F5F5F5F5F5F5F5F5F5F5F5F5F5F5F5F5F5F5F5F5F5F5F5F5F5F5F5F5F5F5F5F5F5F5F5E2F5F5F5F5F5F5F5F5E2E2E2F5F5F5F5F5E2E2E2E2F5F5F5F5F5F5F5F5F5F5F5F5F5F5F5F5F5F5F5F5F5F5F5F5F5F5F5F5F5F5F5F5
310
F5F5F5F5BEBEBEBEE2BEBEBEBEE2E2BEBEBEBEBEE2E2BEBEBEE2BEBEBEBEF5F5F5F5F5F5F5F5F5F5F5BEBEBEBEBEE2BEBEBEBEBEECE2BEBEBEBEBEBEBEBEE2BEBEBEBEBEBEBEBEBEBEBEBEBEBEBEBEBEBEBEBEBEBEBEBEBEE2E2BEBEBEBEBEBEF5F5F5F5F5F5F5F5F5F5F5F5F5F5F5F5F5F5F5F5F5F5F5F5F5F5F5F5F5F5F5
310
E2E2E2E2F5F5F5F5F5E2E2E2F5F5F5F5F5F5F5F5E2F5F5F5F5F5F5F5F5F5F5F5F5F5F5F5F5F5F5F5F5F5F5F5F5F5F5F5F5F5F5F5F5F5F5F5F5F5F5F5F5E2E2F5F5F5F5E2E2E2BEE2E2E2F5F5F5F5E2F5F5F5F5F5F5F5F5F5F5F5F5F5F5F5F5F5F5F5F5E2F5F5F5F5F5ECE2F5F5F5F5F5F5F5F5E2F5F5F5F5F5F5F5F5F5F5F5
310
F5F5F5F5F5F5F5F5F5F5F5F5F5F5E2E2F5F5F5F5F5F5F5F5F5F5F5F5F5F5F5F5F5F5F5F5F5F5F5F5F5F5F5F5F5F5F5F5F5F5F5F5F5E2F5F5F5F5F5F5F5F5E2E2E2F5F5F5F5F5F5F5F5E2F5F5F5F5F5F5F5F5F5F5F5F5F5F5F5F5F5F5F5F5F5F5F5F5F5F5F5F5F5F5F5F5F5F5F5F5F5F5F5F50FE2F5F5F5F5F5F5E2E2F5F5F5
310
F5F5F5F5E2F5F5F5F5F5F5F5F5F5F5F5F5F5F5F5F5F5F5F5F5E2F5F5F5F5ECF5E2F5F5F5F5F5F5F5F5E2F5F5F5F5F5F5F5F5F5F5F5F5F5F5F5F5F5F5F5F5F5F5F5F5F5E2E2F5F5F5F5F5F5F5F5F5F5F5F5F5F5F5F5F5F5F5F5F5F5F5F5F5F5F5F5F5F5F5F5F5F5F5F5F5E2F5F5F5F5F5F5F5F5E2E2E2F5F5F5F5F5F5F5F5E2
310
F5F5F5F5F5F5F5F5F5F5F5F5F5F5F5F5F5F5F5F5F5F5F5F5F5F5F5F5F5F5F5F5F5F5F5F5F5F5F5F50FE2F5F5F5F5F5F5E2E2F5F5F5F5F5F5E2E2F5F5F5F5F5F5F5F5F5F5F5F5F5F5F5F5F5F5F5F5E2F5F5ECECF5F5E2F5F5F5F5F5F5F5F5E2F5F5F5F5F5F5F5F5F5F5F5F5F5F5F5F5F5F5F5F5F5F5F5F5F5E2E2F5F5F5F5F5
310
F5F5F5F5F5F5F5F5F5F5F5F5F5F5F5F5F5F5F5F5F5F5F5F5F5F5F5F5F5F5F5F5E2F5F5F5F5F5F5F5F5E2E2E2F5F5F5F5F5F5F5F5E2F5F5F5F5F5F5F5F5F5F5F5F5F5F5F5F5F5F5F5F5F5F5F5F5F5F5F5F5F5F5F5F5F5F5F5F5F5F5F5F50FE2F5F5F5F5F5F5E2E2F5F5F5F5F5F5E20FF5F5F5F5F5F5F5F5F5F5F5F5F5F5F5F5
310
F5F5F5F50FECECF5F5F5F5E2F5F5F5F5F5F5F5F5E2E2E2E2E2E2E2E2E2E2E2E2E2E2E2E2E2E2E2E2E2E2E2E2E2E2E2E2F5F5F5F5F5F5F5F5F5F5F5F5F5F5F5F5F5F5F5F5F5F5F5F5F5F5F5F5F5F5F5F5F5F5F5F5F5E2F5F5F5F5F5F5F5F5E2E2E2F5F5F5F5F5E2F5F5E2F5F5F5F5F5F5F5F5F5F5F5F5F5F5F5F5F5F5F5F5F5
310
F5F5F5F5F5F5F5F5F5F5F5F5F5F5F5F5F5F5F50FF5E2F5F5F5F5F5F5BEF5F5F5F5F5E2E20FF5F5F5F5F5F5F5F5F5F5F5F5F5F5F5F5F5F5F5F50FE2F5F5F5F5F5E2E2E2E2E2E2E2E2E2E2E2E2E2E2E2E2E2E2E2E2E2E2E2E2E2E2E2E2E2E2E2E2E2E2E2E20FF5F5F5F5F5F5F5F5F5F5F5F5F5F5F5F5F5F5F5F5F5F5F5F5F5F5
310
F5F5F5F5F5F5F5F5F5F5F5E2F5F5E2F5F5F5F5F5E2E2E2F5F5F5F5F5E2F5F5E2F5F5F5F5F5F5F5F5F5F5F5F5F5F5F5F5F5F5F5F5F5F5F5F5F5F5F5F5F5F5F5F5F5F5F5F5F5F5F5F50FF5F5E2F5F5F5F5F5BEF5F5F5F5E2E2F50FF5F5F5F5F5F5F5F5F5F5F5F5F5F5F5F5F5F5F5F50FE2E2F5F5F5F5E2F5F5F5F5F5F5F5F50F
310
F5F5F5F5F5F5F5F5F5F5F5F5F5F5F5F5F5F5F5F5F5F5F5F5F5F50FF5F5F5F5F5F5F5F5F5F5F5F5F5F5F5F5F5F5F5F5F5F5F5F5F5F5F5F5F5F5F5F5F5F5F5F5F5E2F5F5E2F5F5F5F5F5E2E2E2F5F5F5F5F5E2F5F5E2F5F5F5F5F5F5F5F5F5F5F5F5F5F5F5F5F5F5F5F5F5F5F5F5F5F5F5F5F5F5F5F5F5F5F5F5F5F5F5F50FF5
310
F5F5E2E2F5F5F5BEF5F5F5E2E2F5F50FF5F5F5F5F5F5F5F5F5F5F5F5F5F5F5F5F5F5F5F50FF5E2F5F5F5F5E2F5F5F5F5F5F5F5F50FF5F5F5F5F5F5F5F5F5F5F5F5F5F5F5F5F5F5F5F5F5F5F5F5F5F50FF5F5F5F5F5F5F5F5F5F5F5F5F5F5F5F5F5F5F5F5F5F5F5F5F5F5F5F5F5F5F5F5F5F5F5F5F5E2F5F5E2F5F5F5F5F5E2
310
E2E2F5F5F5F5F5E2F5F5E2F5F5F5F5F5F5F5F5F5F5F5F5F5F5F5F5F5F5F5F5F5F5F5F5F5F5F5F5F5F5F5F5F5F5F5F5F5F5F5F50FF5F5F5F5E2E2E2E2E2E2E2E2F5F5F5F50FF5F5F5F5F5F5F5F5F5F5F5F5F5F5F5F5F5F5F5F50FF5E2E2E2E2E2E2F5F5F5F5F5F5F5F50FF5F5F5F5F5F5F5F5F5F5F5F5F5F5F5F5F5F5F5F5F5
310
F5F5F5F5F50FF5F5F5F5F5F5F5F5F5F5F5F5F5F5F5F5F5F5F5F5F5F5F5F5F5F5F5F5F5F5F5F5F5F5F5F5F5E2F5F5E2F5F5F5F5F5E2E2E2F5F5F5F5F5E2F5F5E2F5F5F5F5F5F5F5F5F5F5F5F5F5F5F5F5F5F5F5F5F5F5F5F5F5F5F5F5F5F5F5F5F5F5F5F5F5F5F5F50FF5F5F5F5F5F5F5F5BEF5F5F5F5F5F5F50FF5F5F5F5F5
310
F5F5F5F5F5F5F5F5F5F5F5F5F5F5F50FF5F5F5F5F5F50FF5F5F5F5F5F5F5F50FF5F5F5F5F5F5F5F5F5F5F5F5F5F5F5F5F5F5F5F5F5F5F5F5F5F50FF5F5F5F5F5F5F5F5F5F5F5F5F5F5F5F5F5F5F5F5F5F5F5F5F5F5F5F5F5F5F5F5F5F5F5F5F5E2F5F5E2F5F5F5F5F5E2E2E2F5F5F5F5F5E2F5F5E2F5F5F5F5F5F5F5F5F5F5
310
F5F5F5F5F5F5F5F5F5F5F5F5F5F5F5F5F5F5F5F5F5F5F5F5F5F5F5F5F5F50FF5F5F5F5F5F5F5F5BEF5F5F5F5F5F5F50FF5F5F5F5F5F5F5F5F5F5F5F5F5F5F5F5F5F5F5F50FF5F5F5F5F5F50FF5F5F5F5F5F5F5F50FF5F5F5F5F5F5F5F5F5F5F5F5F5F5F5F5F5F5F5F5F5F5F5F5F5F50FF5F5F5F5F5F5F5F5F5F5F5F5F5F5F5
310
F5F5F5F5F5F5F5F5F5F5F5F5F5F5F5F5F5F5F5F5F5F5E2F5F5E2F5F5F5F5F5E2E2E2F5F5F5F5F5E2F5F5E2F5F5F5F5F5F5F5F5F5F5F5F5F5F5F5F5F5F5F5F5F5F5F5F5F5F5F5F5F5F5F5F5F5F5F5F5F5F5F5F50FF5F5F5F5F5F5F5F5BEF5F5F5F5F5F5F50FF5F5F5F5F5F5F5F5F5F5F5F5F5F5F5F5F5F5F5F50FF5F5F5F5F5
310
F50FF5F5F5F5F5F5F5F50FF5F5F5F5F5F5F5F5F5F5F5F5F5F5F5F5F5F5F5F5F5F5F5F5F5F50FF5F5F5F5F5F5F5F5F5F5F5F5F5F5F5F5F5F5F5F5F5F5F5F5F5F5F5F5F5F5F5F5F5F5F5F5F5E2F5F5E2F5F5F5F5F5E2E2E2F5F5F5F5F5E2F5F5E2F5F5F5F5F5F5F5F5F5F5F5F5F5F5F5F5F5F5F5F5F5F5F5F5F5F5F5F5F5F5F5
310
F5F5F5F5F5F5F5F5F50FF5F5F5F5F5F5F5F5BEF5F5F5F5F5F5F50FF5F5F5F5F5F5F5F5F5F5F5F5F5F5F5F5F5F5F5F50FF5F5F5F5F5F50FF5F5F5F5F5F5F5F50F0F0F0F0F0F0F0F0F0F0F0F0F0F0F0F0F0F0F0F0F0F0F0F0F0F0F0FF5F5F5F5F5F5F5F5F5F5F5F5F5F5F5F5F5F5F5F5F5F5F5F5F5F5F5F5F5F5F5F5F5F5F5F5
310
F5E2F5F5E2F5F5F5F5F5E2E2E2F5F5F5F5F5E2E2E2E2F5F5F5F5F5F5F5F5F5F5F5F5F5F5F5F5F5F5F5F5F5F5F5F5F5F5F5F5F5F5F5F5F5F5F5F5F5F5F5F50FF5F5F5F5F5F5F5F5F5F5F5F5F5F5F5F50FF5F5F5F5F5F5F5F5F5F5F5F5F5F5F5F5F5F5F5F50FF5F5F5F5F5F50FF5F5F5F5F5F5F5F50FF5F5F5F5F5F5F5F5F5F5
310
F50F0F0FF5F5F5F5F5F5F5F5F5F5F5F50FF5F5F5F5F5F5F5F5F5F5F5F5F5F5F5F5F5F5F5F5F5F5F5F5F5F5F5F5F5F5F5F5F5F5F5F5F5E2E2E2E2F5F5F5F5F5E2E2E2F5F5F5F5F5E2E2E2E2F5F5F5F5F5F5F5F5F5F5F5F5F5F5F5F5F5F5F5F5F5F5F5F5F5F5F5F5F5F5F5F5F5F5F5F5F5F5F5F50FF5F5F5F5F5F5F5F5F5F5F5
310
F5F5F5F5F50FF5F5F5F5F5F5F5F5F5F5F5F5F5F5F5F5F5F5F5F50FF5F5F5F5F5F50FF5F5F5F5F5F5F5F5F5F5F5F5F5F5F5F5F5F5F5F50F0F0FF5F5F5F5F5F5F5F5F5F5F5F50FF5F5F5F5F5F5F5F5F5F5F5F5F5F5F5F5F5F5F5F5F5F5F5F5F5F5F5F5F5F5F5F5F5F5F5F5F5E2E2E2E2F5F5F5F5F5E2E2E2F5F5F5F5F5E2F5F5
310
E2F5F5F5F5F5F5F5F5F5F5F5F5F5F5F5F5F5F5F5F5F5F5F5F5F5F5F5F5F5F5F5F5F5F5F5F5F5F5F5F50FF5F5F5F5F5F5F5F5F5F5F5F5F5F5F5F50FF5F5F5F5F5F5F5F5F5F5F5F5F5F5F5F5F5F5F5F50FF5F5F5F5F5F50FF5F5F5F5F5F5F5F5F5F5F5F5F5F5F5F5F5F5F5F50F0F0FF5F5F5F5F5F5F5F5F5F5F5F50FF5F5F5F5
310
F5F5F5F5F5F5F5F5F5F5F5F5F5F5F5F5F5F5F5F5F5F5F5F5F5F5F5F5F5F5F5F5F5E2F5F5E2F5F5F5F5F5E2E2E2F5F5F5F5F5E2F5F5E2F5F5F5F5F5F5F5F5F5F5F5F5F5F5F5F5F5F5F5F5F5F5F5F5F5F5F5F5F5F5F5F5F5F5F5F5F5F5F5F50FF5F5F5F5F5F5F5F5F5F5F5F5F5F5F5F50FF5F5F5F5F5F5F5F5F5F5F5F5F5F5F5
310
F5F5F5F5F50FF5F5F5F5F5F50FF5F5F5F5F5F5F5F5F5F5F5F5F5F5F5F5F5F5F5F5F5F5F5F5F5F5F5F5F5F5F5F5F5F5F50FF5F5F5F5F5F5F5F5F5F5F5F5F5F5F5F5F5F5F5F5F5F5F5F5F5F5F5F5F5F5F5F5F5F5F5F5F5E2F5F5E2F5F5F5F5F5E2E2E2F5F5F5F5F5E2F5F5E2F5F5F5F5F5F5F5F5F5F5F5F5F5F5F5F5F5F5F5F5
310
F5F5F5F5F5F5F5F5F5F5F5F5F5F5F5F5F5F5F5F50FF5F5F5F5F5F5F5F5F5F5F5F5F5F5F5F50FF5F5F5F5F5F5F5F5F5F5F5F5F5F5F5F5F5F5F5F50FF5F5F5F5F5F50FF5F5F5F5F5F5F5F5F5F5F5F5F5F5F5F5F5F5F5F5F5F5F5F5F5F5F5F5F5F5F5F5F5F5F50FF5F5F5F5F5F5F5F5F5F5F5F5F5F5F5F5F5F5F5F5F5F5F5F5F5
310
F5F5F5F5F5F5F5F5F5F5F5F5E2F5F5E2F5F5F5F5F5E2E2E2F5F5F5F5F5E2F5F5E2F5F5F5F5F5F5F5F5F5F5F5F5F5F5F5F5F5F5F5F5F5F5F5F5F5F5F5F5F5F5F5F5F5F5F5F5F5F5F5F50FF5F5F5F5F5F5F5F5F5F5F5F5F5F5F5F50FF5F5F5F5F5F5F5F5F5F5F5F5F5F5F5F5F5F5F5F50FF5F5F5F5F5F50FF5F5F5F5F5F5F5F5
310
F5F5F5F5F5F5F5F5F5F5F5F5F5F5F5F5F5F5F5F5F5F5F5F5F5F5F50FF5F5F5F5F5F5F5F5F5F5F5F5F5F5F5F5F5F5F5F5F5F5F5F5F5F5F5F5F5F5F5F5F5F5F5F5F5E2F5F5E2F5F5F5F5F5E2E2E2F5F5F5F5F5E2F5F5E2F5F5F5F5F5F5F5F5F5F5F5F5F5F5F5F5F5F5F5F5F5F5F5F5F5F5F5F5F5F5F5F5F5F5F5F5F5F5F5F50F
310
F50FF5F5F5F5F5F5F5F5F5F5F5F5F50F0FF5F5F5F5F5F5F5F5F5F5F5F5F5F5F5F5F5F5F5F50FF50FF5F50FF50F0FF5F5F5F5F5F5F5F5F5F5F5F5F5F5F5F5F5F5F5F5F5F5F5F5F5F5F5F5F5F5F5F50FF50FF5F5F5F5F5F5F5F5F5F5F5F5F5F5F5F5F5F5F5F5F5F5F5F5F5F5F5F5F5F5F5F5F5F5F5F5F5E2F5F5E2F5F5F5F5F5
310
E2E2E2F5F5F5F5F5F5F5F5E2F5F5F5F5F5F5F5F5F5F5F5F5F5F5F5F5F5F5F5F5F5F5F5F5F5F5F5F5F5F5F5F5F5F5F5F5F5F5F5F50F0F0F0F0F0F0F0F0F0F0F0F0F0F0F0F0F0FF5F5F5F5F5F5F5F5F5F5F5F5F5F5F5F5F5F5F5F50F0F0F0F0F0F0F0F0F0F0F0F0F0F0F0F0F0F0F0F0F0F0F0F0F0F0F0F0F0F0F0F0F0F0F0F0F
310
0F0F0F0F0F0F0FF5F5F5F5F5F5F5F5F5F5F5F5F5F5F5F5F5F5F5F5F5F5F5F5F5F5F5F5F5F5F5F5F5F5F5F5F5E2F5F5F5F5F5F5F5F5E2E2E2F5F5F5F5F5F5F5F5E2F5F5F5F5F5F5F5F5F5F5F5F5F5F5F5F5F5F5F5F5F5F5F5F5F5F5F5F5F5F5F5F5F5F5F5F5F5F5F5F5F5F5F5F5F5F5F50F0F0F0F0FF5F5F5F5F5F5F5F5F5F5
310
F5F5F5F5F5F5F5F5F5F5F5F5F5F5F5F5F5F50F0F0F0FF5F5F5F5F5F5F5F5F5F5F5F5F5F5F5F5F5F50F0F0FF5F5F5F5F5F5F5F5F5F5F5F5F5F5F5F5F5F5F5F5F5F5F5F5F5F5F5F5F5F5F5F5F5F5F5F5F5F5F5F5F5F5F5F5F5F5F5F5F5F5F5F5F5F5E2F5F5F5F5F5F5F5F5E2E2E2F5F5F5F5F5F5F5F5E2F5F5F5F5F5F5F5F5F5
310
F5F5F5F5F5F5F5F5F5F5F5F5F5F5F5F5F5F5F5F5F5F5F5F5F5F5F5F5F5F5F5F5F5F5F5F5F5F50F0FF50F0FF5F5F5F5F5F5F5F5F5F5F5F5F5F5F5F5F5F5F5F5F5F5F5F5F5F5F5F50F0F0F0FF5F5F5F5F5F5F5F5F5F5F5F5F5F5F5F5F50F0F0F0FF5F5F5F5F5F5F5F5F5F5F5F5F5F5F5F5F5F5F5F5F5F5F5F5F5F5F5F5F5F5F5
310
F5F5F5F5F5F5F5F5F5F5F5F5F5F5F5F5F5F5F5F5F5F5F5E2F5F5F5F5F5F5F5F5E2E2E2F5F5F5F5F5F5F5F5E2F5F5F5F5F5F5F5F5F5F5F5F5F5F5F5F5F5F5F5F5F5F5F5F5F5F5F5F5F5F5F5F5F5F5F5F5F5F5F5F5F5F5F5F5F5F5F5F5F5F5F5F5F5F5F5F5F5F5F5F5F5F5F5F5F5F5F5F5F5F5F5F5F5F5F5F5F5F5F5F5F5F5F5
310
F5F5F5F5F5F5F5F5F5F5F5F5F5F5F5F5F5F5F5F5F5F5F5F5F5F5F5F5F5F5F5F5F5F5F5F5F5F5F5F5F5F5F5F5F5F5F5F5F5F5F5F5F5F5F5F5F5F5F5F5F5F5F5F5F5F5F5F5F5F5F5F5F5F5F5F5E2F5F5F5F5F5F5F5F5E2E2E2F5F5F5F5F5F5F5F5E2F5F5F5F5F5F5F5F5F5F5F5F5F5F5F5F5F5F5F5F5F5F5F5F5F5F5F5F5F5F5
310
F5F5F5F5F5F5F5F5F5F5F5F5F5F5F5F5F5F5F5F5F5F5F5F5F5F5F5F5F5F5F5F5F5F5F5F5F5F5F5F5F5F5F5F5F5F5F5F5F5F5F5F5F5F5F5F5F5F5F5F5F5F5F5F5F5F5F5F5F5F5F5F5F5F5F5F5F5F5F5F5F5F5F5F5F5F5F5F5F5F5F5F5F5F5F5F5F5F5F5F5F5F5F5F5F5F5F5F5F5F5F5F5F5F5F5F5F5F5F5F5F5F5F5F5F5F5F5
310
F5F5E2F5F5F5F5F5F5F5F5E2E2E2F5F5F5F5F5F5F5F5E2F5F5F5F5F5F5F5F5F5F5F5F5F5F5F5F5F5F5F5F5F5F5F5F5F5F5F5F5F5F5F5F5F5F5F5F5F5F5F5F5F5F5F5F5F5F5F5F5F5F5F5F5F5F5F5F5F5F5F5F5F5F5F5F5F5F5F5F5F5F5F5F5F5F5F5F5F5F5F5F5F5F5F5F5F5F5F5F5F5F5F5F5F5F5F5F5F5F5F5F5F5F5F5F5
310
F5F5F5F5F5F5F5F5F5F5F5F5F5F5F5F5F5F5F5F5F5F5F5F5F5F5F5F5F5F5F5F5F5F5F5F5F5F5F5F5F5F5F5F5F5F5F5F5F5F5F5F5F5F5F5E2F5F5F5F5F5F5F5F5E2E2E2F5F5F5F5F5F5F5F5E2F5F5F5F5F5F5F5F5F5F5F5F5F5F5F5F5F5F5F5F5F5F5F5F5F5F5F5F5F5F5F5F5F5F5F5F5F5F5F5F5F5F5F5F5F5F5F5F5F5F5F5
310
F5F5F5F5F5F5F5F5F5F5F5F5F5F5F5F5F5F5F5F5F5F5F5F5F5F5F5F5F5F5F5F5F5F5F5F5F5F5F5F5F5F5F5F5F5F5F5F5F5F5F5F5F5F5F5F5F5F5F5F5F5F5F5F5F5F5F5F5F5F5F5F5F5F5F5F5F5F5F5F5F5F5F5F5F5F5F5F5F5F5F5F5F5F5F5F5F5F5F5F5F5F5F5F5F5F5F5F5E2F5F5F5F5F5F5F5F5E2E2E2F5F5F5F5F5E2E2
310
E2E2F5F5F5F5F5F5F5F5F5F5F5F5F5F5F5F5F5F5F5F5F5F5F5F5F5F5F5F5F5F5F5F5F5F5F5F5F5F5F5F5F5F5F5F5F5F5F5F5F5F5F5F5F5F5F5F5F5F5F5F5F5F5F5F5F5F5F5F5F5F5F5F5F5F5F5F5F5F5F5F5F5F5F5F5F5F5F5F5F5F5F5F5F5F5F5F5F5F5F5F5F5F5F5F5F5F5F5F5F5F5F5F5F5F5F5F5F5F5F5F5F5F5F5F5F5
310
F5F5F5F5F5F5F5F5F5F5F5F5F5F5F5F5F5F5F5F5F5F5F5F5F5F5F5F5F5F5F5F5F5F5E2E2E2E2F5F5F5F5F5E2E2E2F5F5F5F5F5E2F5F5E2F5F5F5F5F5F5F5F5F5F5F5F5F5F5F5F5F5F5F5F5F5F5F5F5F5F5F5F5F5F5F5F5F5F5F5F5F5F5F5F5F5F5F5F5F5F5F5F5F5F5F5F5F5F5F5F5F5F5F5F5F5F5F5F5F5F5F5F5F5F5F5F5
310
F5F5F5F5F5F5F5F5F5F5F5F5F5F5F5F5F5F5F5F5F5F5F5F5F5F5F5F5F5F5F5F5F5F5F5F5F5F5F5F5F5F5F5F5F5F5F5F5F5F5F5F5F5F5F5F5F5F5F5F5F5F5F5F5F5F5F5F5F5F5F5F5F5F5F5F5F5F5F5F5F5F5F5F5F5F5F5E2F5F5E2F5F5F5F5F5E2E2E2F5F5F5F5F5E2F5F5E2F5F5F5F5F5F5F5F5F5F5F5F5F5F5F5F5F5F5F5
310
F5F5F5F5F5F5F5F5F5F5F5F5F5F5F5F5F5F5F5F5F5F5F5F5F5F5F5F5F5F5F5F5F5F5F5F5F5F5F5F5F5F5F5F5F5F5F5F5F5F5F5F5F5F5F5F5F5F5F5F5F5F5F5F5F5F5F5F5F5F5F5F5F5F5F5F5F5F5F5F5F5F5F5F5F5F5F5F5F5F5F5F5F5F5F5F5F5F5F5F5F5F5F5F5F5F5F5F5F5F5F5F5F5F5F5F5F5F5F5F5F5F5F5F5F5F5F5
310
F5F5F5F5F5F5F5F5F5F5F5F5F5E2F5F5E2F5F5F5F5F5E2E2E2F5F5F5F5F5E2F5F5E2F5F5F5F5F5F5F5F5F5F5F5F5F5F5F5F5F5F5F5F5F5F5F5F5F5F5F5F5F5F5F5F5F5F5F5F5F5F5F5F5F5F5F5F5F5F5F5F5F5F5F5F5F5F5F5F5F5F5F5F5F5F5F5F5F5F5F5F5F5F5F5F5F5F5F5F5F5F5F5F5F5F5F5F5F5F5F5F5F5F5F5F5F5
310
F5F5F5F5F5F5F5F5F5F5F5F5F5F5F5F5F5F5F5F5F5F5F5F5F5F5F5F5F5F5F5F5F5F5F5F5F5F5F5F5F5F5F5F5F5F5F5F5F5F5F5F5F5F5F5F5F5F5F5F5F5F5F5F5F5F5E2F5F5E2F5F5F5F5F5E2E2E2F5F5F5F5F5E2F5F5E2F5F5F5F5F5F5F5F5F5F5F5F5F5F5F5F5F5F5F5F5F5F5F5F5F5F5F5F5F5F5F5F5F5F5F5F5F5F5F5F5
310
F5F5F5F5F5F5F5F5F5F5F5F5F5F5F5F5F5F5F5F5F5F5F5F5F5F5F5F5F5F5F5F5F5F5F5F5F5F5F5F5F5F5F5F5F5F5F5F5F5F5F5F5F5F5F5F5F5F5F5F5F5F5F5F5F5F5F5F5F5F5F5F5F5F5F5F5F5F5F5F5F5F5F5F5F5F5F5F5F5F5F5F5F5F5F5F5F5F5F5F5F5F5F5F5F5F5F5F5F5F5F5F5F5F5F5F5F5F5F5E2F5F5E2F5F5F5F5
310
F5E2E2E2F5F5F5F5F5E2F5F5E2F5F5F5F5F5F5F5F5F5F5F5F5F5F5F5F5F5F5F5F5F5F5F5F5F5F5F5F5F5F5F5F5F5F5F5F5F5F5F5F5F5F5F5F5F5F5F5F5F5F5F5F5F5F5F5F5F5F5F5F5F5F5F5F5F5F5F5F5F5F5F5F5F5F5F5F5F5F5F5F5F5F5F5F5F5F5F5F5F5F5F5F5F5F5F5F5F5F5F5F5F5F5F5F5F5F5F5F5F5F5F5F5F5F5
310
F5F5F5F5F5F5F5F5F5F5F5F5F5F5F5F5F5F5F5F5F5F5F5F5F5F5F5F5F5F5F5F5F5F5F5F5F5F5F5F5F5F5F5F5F5E2F5F5E2F5F5F5F5F5E2E2E2F5F5F5F5F5E2F5F5E2F5F5F5F5F5F5F5F5F5F5F5F5F5F5F5F5F5F5F5F5F5F5F5F5F5F5F5F5F5F5F5F5F5F5F5F5F5F5F5F5F5F5F5F5F5F5F5F5F5F5F5F5F5F5F5F5F5F5F5F5F5
310
F5F5F5F5F5F5F5F5F5F5F5F5F5F5F5F5F5F5F5F5F5F5F5F5F5F5F5F5F5F5F5F5F5F5F5F5F5F5F5F5F5F5F5F5F5F5F5F5F5F5F5F5F5F5F5F5F5F5F5F5F5F5F5F5F5F5F5F5F5F5F5F5F5F5F5F5F5F5F5F5F5F5F5F5F5F5F5F5F5F5F5F5F5F5F5F5F5F5E2F5F5E2F5F5F5F5F5E2E2E2F5F5F5F5F5E2F5F5E2F5F5F5F5F5F5F5F5
310
F5F5F5F5F5F5F5F5F5F5F5F5F5F5F5F5F5F5F5F5F5F5F5F5F5F5F5F5F5F5F5F5F5F5F5F5F5F5F5F5F5F5F5F5F5F5F5F5F5F5F5F5F5F5F5F5F5F5F5F5F5F5F5F5F5F5F5F5F5F5F5F5F5F5F5F5F5F5F5F5F5F5F5F5F5F5F5F5F5F5F5F5F5F5F5F5F5F5F5F5F5F5F5F5F5F5F5F5F5F5F5F5F5F5F5F5F5F5F5F5F5F5F5F5F5F5F5
310
F5F5F5F5F5F5F5F5F5F5F5F5F5F5F5F5F5F5F5F5F5F5F5F5E2F5F5E2F5F5F5F5F5E2E2E2F5F5F5F5F5E2F5F5E2F5F5F5F5F5F5F5F5F5F5F5F5F5F5F5F5F5F5F5F5F5F5F5F5F5F5F5F5F5F5F5F5F5F5F5F5F5F5F5F5F5F5F5F5F5F5F5F5F5F5F5F5F5F5F5F5F5F5F5F5F5F5F5F5F5F5F5F5F5F5F5F5F5F5F5F5F5F5F5F5F5F5
310
F5F5F5F5F5F5F5F5F5F5F5F5F5F5F5F5F5F5F5F5F5F5F5F5F5F5F5F5F5F5F5F5F5F5F5F5F5F5F5F5F5F5F5F5F5F5F5F5F5F5F5F5F5F5F5F5F5F5F5F5F5F5F5F5F5F5F5F5F5F5F5F5F5F5F5F5F5E2F5F5E2F5F5F5F5F5E2E2E2F5F5F5F5F5E2F5F5E2F5F5F5F5F5F5F5F5F5F5F5F5F5F5F5F5F5F5F5F5F5F5F5F5F5F5F5F5F5
310
F5F5F5F5F5F5F5F5F5F5F5F5F5F5F5F5F5F5F5F5F5F5F5F5F5F5F5F5F5F5F5F5F5F5F5F5F5F5F5F5F5F5F5F5F5F5F5F5F5F5F5F5F5F5F5F5F5F5F5F5F5F5F5F5F5F5F5F5F5F5F5F5F5F5F5F5F5F5F5F5F5F5F5F5F5F5F5F5F5F5F5F5F5F5F5F5F5F5F5F5F5F5F5F5F5F5F5F5F5F5F5F5F5F5F5F5F5F5F5F5F5F5F5F5F5F5F5
310
F5F5F5E2F5F5E2F5F5F5F5F5E2E2E2F5F5F5F5F5E2F5F5E2F5F5F5F5F5F5F5F5F5F5F5F5F5F5F5F5F5F5F5F5F5F5F5F5F5F5F5F5F5F5F5F5F5F5F5F5F5F5F5F5F5F5F5F5F5F5F5F5F5F5F5F5F5F5F5F5F5F5F5F5F5F5F5F5F5F5F5F5F5F5F5F5F5F5F5F5F5F5F5F5F5F5F5F5F5F5F5F5F5F5F5F5F5F5F5F5F5F5F5F5F5F5F5
310
F5F5F5F5F5F5F5F5F5F5F5F5F5F5F5F5F5F5F5F5F5F5F5F5F5F5F5F5F5F5F5F5F5F5F5F5F5F5F5F5F5F5F5F5F5F5F5F5F5F5F5F5F5F5F5F5E2F5F5E2F5F5F5F5F5E2E2E2F5F5F5F5F5E2F5F5E2F5F5F5F5F5F5F5F5F5F5F5F5F5F5F5F5F5F5F5F5F5F5F5F5F5F5F5F5F5F5F5F5F5F5F5F5F5F5F5F5F5F5F5F5F5F5F5F5F5F5
310
F5F5F5F5F5F5F5F5F5F5F5F5F5F5F5F5F5F5F5F5F5F5F5F5F5F5F5F5F5F5F5F5F5F5F5F5F5F5F5F5F5F5F5F5F5F5F5F5F5F5F5F5F5F5F5F5F5F5F5F5F5F5F5F5F5F5F5F5F5F5F5F5F5F5F5F5F5F5F5F5F5F5F5F5F5F5F5F5F5F5F5F5F5F5F5F5F5F5F5F5F5F5F5F5F5F5F5F5F5E2F5F5E2F5F5F5F5F5E2E2E2F5F5F5F5F5E2
310
F5F5E2F5F5F5F5F5F5F5F5F5F5F5F5F5F5F5F5F5F5F5F5F5F5F5F5F5F5F5F5F5F5F5F5F5F5F5F5F5F5F5F5F5F5F5F5F5F5F5F5F5F5F5F5F5F5F5F5F5F5F5F5F5F5F5F5F5F5F5F5F5F5F5F5F5F5F5F5F5F5F5F5F5F5F5F5F5F5F5F5F5F5F5F5F5F5F5F5F5F5F5F5F5F5F5F5F5F5F5F5F5F5F5F5F5F5F5F5F5F5F5F5F5F5F5F5
310
F5F5F5F5F5F5F5F5F5F5F5F5F5F5F5F5F5F5F5F5F5F5F5F5F5F5F5F5F5F5F5F5F5F5F5E2F5F5E2F5F5F5F5F5E2E2E2F5F5F5F5F5E2E2E2E2F5F5F5F5F5F5F5F5F5F5F5F5F5F5F5F5F5F5F5F5F5F5F5F5F5F5F5F5F5F5F5F5F5F5F5F5F5F5F5F5F5F5F5F5F5F5F5F5F5F5F5F5F5F5F5F5F5F5F5F5F5F5F5F5F5F5F5F5F5F5F5
310
F5F5F5F5F5F5F5F5F5F5F5F5F5F5F5F5F5F5F5F5F5F5F5F5F5F5F5F5F5F5F5F5F5F5F5F5F5F5F5F5F5F5F5F5F5F5F5F5F5F5F5F5F5F5F5F5F5F5F5F5F5F5F5F5F5F5F5F5F5F5F5F5F5F5F5F5F5F5F5F5F5F5F5F5F5F5F5F5E2E2E2E2F5F5F5F5F5E2E2E2F5F5F5F5F5E2F5E2E2F5F5F5F5F5F5F5F5F5F5F5F5F5F5F5F5F5F5
310
F5F5F5F5F5F5F5F5F5F5F5F5F5F5F5F5F5F5F5F5F5F5F5F5F5F5F5F5F5F5F5F5F5F5F5F5F5F5F5F5F5F5F5F5F5F5F5F5F5F5F5F5F5F5F5F5F5F5F5F5F5F5F5F5F5F5F5F5F5F5F5F5F5F5F5F5F5F5F5F5F5F5F5F5F5F5F5F5F5F5F5F5F5F5F5F5F5F5F5F5F5F5F5F5F5F5F5F5F5F5F5F5F5F5F5F5F5F5F5F5F5F5F5F5F5F5F5
310
F5F5F5F5F5F5F5F5F5F5F5F5F5F5E2E2F5E2F5F5F5F5F5E2E2E2F5F5F5F5F5E2F5F5E2F5F5F5F5F5F5F5F5F5F5F5F5F5F5F5F5F5F5F5F5F5F5F5F5F5F5F5F5F5F5F5F5F5F5F5F5F5F5F5F5F5F5F5F5F5F5F5F5F5F5F5F5F5F5F5F5F5F5F5F5F5F5F5F5F5F5F5F5F5F5F5F5F5F5F5F5F5F5F5F5F5F5F5F5F5F5F5F5F5F5F5F5
310
F5F5F5F5F5F5F5F5F5F5F5F5F5F5F5F5F5F5F5F5F5F5F5F5F5F5F5F5F5F5F5F5F5F5F5F5F5F5F5F5F5F5F5F5F5F5F5F5F5F5F5F5F5F5F5F5F5F5F5F5F5F5F5F5F5F5F5E2F5F5E2F5F5F5F5F5E2E2E2F5F5F5F5F5F5F5F5E2F5F5F5F5F5F5F5F5F5F5F5F5F5F5F5F5F5F5F5F5F5F5F5F5F5F5F5F5F5F5F5F5F5F5F5F5F5F5F5
310
F5F5F5F5F5F5F5F5F5F5F5F5F5F5F5F5F5F5F5F5F5F5F5F5F5F5F5F5F5F5F5F5F5F5F5F5F5F5F5F5F5F5F5F5F5F5F5F5F5F5F5F5F5F5F5F5F5F5F5F5F5F5F5F5F5F5F5F5F5F5F5F5F5F5F5F5F5F5F5F5F5F5F5F5F5F5F5F5F5F5F5F5F5F5F5F5F5F5F5F5F5F5F5F5F5F5F5F5F5F5F5F5F5F5F5F5F5F5F5F5E2F5F5F5F5F5F5
310
F5F5E2E2E2F5F5F5F5F5F5F5F5E2F5F5F5F5F5F5F5F5F5F5F5F5F5F5F5F5F5F5F5F5F5F5F5F5F5F5F5F5F5F5F5F5F5F5F5F5F5F5F5F5F5F5F5F5F5F5F5F5F5F5F5F5F5F5F5F5F5F5F5F5F5F5F5F5F5F5F5F5F5F5F5F5F5F5F5F5F5F5F5F5F5F5F5F5F5F5F5F5F5F5F5F5F5F5F5F5F5F5F5F5F5F5F5F5F5F5F5F5F5F5F5F5F5
310
F5F5F5F5F5F5F5F5F5F5F5F5F5F5F5F5F5F5F5F5F5F5F5F5F5F5F5F5F5F5F5F5F5F5F5F5F5F5F5F5F5F5F5F5F5F5E2F5F5F5F5F5F5F5F5E2E2E2F5F5F5F5F5F5F5F5E2F5F5F5F5F5F5F5F5F5F5F5F5F5F5F5F5F5F5F5F5F5F5F5F5F5F5F5F5F5F5F5F5F5F5F5F5F5F5F5F5F5F5F5F5F5F5F5F5F5F5F5F5F5F5F5F5F5F5F5F5
310
F5F5F5F5F5F5F5F5F5F5F5F5F5F5F5F5F5F5F5F5F5F5F5F5F5F5F5F5F5F5F5F5F5F5F5F5F5F5F5F5F5F5F5F5F5F5F5F5F5F5F5F5F5F5F5F5F5F5F5F5F5F5F5F5F5F5F5F5F5F5F5F5F5F5F5F5F5F5F5F5F5F5F5F5F5F5F5F5F5F5F5F5F5F5F5F5F5F5F5E2F5F5F5F5F5F5F5F5E2E2E2F5F5F5F5F5F5F5F5E2F5F5F5F5F5F5F5
310
F5F5F5F5F5F5F5F5F5F5F5F5F5F5F5F5F5F5F5F5F5F5F5F5F5F5F5F5F5F5F5F5F5F5F5F5F5F5F5F5F5F5F5F5F5F5F5F5F5F5F5F5F5F5F5F5F5F5F5F5F5F5F5F5F5F5F5F5F5F5F5F5F5F5F5F5F5F5F5F5F5F5F5F5F5F5F5F5F5F5F5F5F5F5F5F5F5F5F5F5F5F5F5F5F5F5F5F5F5F5F5F5F5F5F5F5F5F5F5F5F5F5F5F5F5F5F5
310
F5F5F5F5F5F5F5F5F5F5F5F5F5F5F5F5F5F5F5F5F5F5F5F5F5E2F5F5F5F5F5F5F5F5E2E2E2F5F5F5F5F5F5F5F5E2F5F5F5F5F5F5F5F5F5F5F5F5F5F5F5F5F5F5F5F5F5F5F5F5F5F5F5F5F5F5F5F5F5F5F5F5F5F5F5F5F5F5F5F5F5F5F5F5F5F5F5F5F5F5F5F5F5F5F5F5F5F5F5F5F5F5F5F5F5F5F5F5F5F5F5F5F5F5F5F5F5
310
F5F5F5F5F5F5F5F5F5F5F5F5F5F5F5F5F5F5F5F5F5F5F5F5F5F5F5F5F5F5F5F5F5F5F5F5F5F5F5F5F5F5F5F5F5F5F5F5F5F5F5F5F5F5F5F5F5F5F5F5F5F5F5F5F5F5F5F5F5F5F5F5F5F5F5F5F5F5E2F5F5F5F5F5F5F5F5E2E2E2F5F5F5F5F5F5F5F5E2F5F5F5F5F5F5F5F5F5F5F5F5F5F5F5F5F5F5F5F5F5F5F5F5F5F5F5F5
310
F5F5F5F5F5F5F5F5F5F5F5F5F5F5F5F5F5F5F5F5F5F5F5F5F5F5F5F5F5F5F5F5F5F5F5F5F5F5F5F5F5F5F5F5F5F5F5F5F5F5F5F5F5F5F5F5F5F5F5F5F5F5F5F5F5F5F5F5F5F5F5F5F5F5F5F5F5F5F5F5F5F5F5F5F5F5F5F5F5F5F5F5F5F5F5F5F5F5F5F5F5F5F5F5F5F5F5F5F5F5F5F5F5F5F5F5F5F5F5F5F5F5F5F5F5F5F5
310
F5F5F5F5E2F5F5F5F5F5F5F5F5E2E2E2F5F5F5F5F5F5F5F5E2F5F5F5F5F5F5F5F5F5F5F5F5F5F5F5F5F5F5F5F5F5F5F5F5F5F5F5F5F5F5F5F5F5F5F5F5F5F5F5F5F5F5F5F5F5F5F5F5F5F5F5F5F5F5F5F5F5F5F5F5F5F5F5F5F5F5F5F5F5F5F5F5F5F5F5F5F5F5F5F5F5F5F5F5F5F5F5F5F5F5F5F5F5F5F5F5F5F5F5F5F5F5
310
F5F5F5F5F5F5F5F5F5F5F5F5F5F5F5F5F5F5F5F5F5F5F5F5F5F5F5F5F5F5F5F5F5F5F5F5F5F5F5F5F5F5F5F5F5F5F5F5F5F5F5F5F5F5F5F5F5E2F5F5F5F5F5F5F5F5E2E2E2F5F5F5F5F5F5F5F5E2F5F5F5F5F5F5F5F5F5F5F5F5F5F5F5F5F5F5F5F5F5F5F5F5F5F5F5F5F5F5F5F5F5F5F5F5F5F5F5F5F5F5F5F5F5F5F5F5F5
310
F5F5F5F5F5F5F5F5F5F5F5F5F5F5F5F5F5F5F5F5F5F5F5F5F5F5F5F5F5F5F5F5F5F5F5F5F5F5F5F5F5F5F5F5F5F5F5F5F5F5F5F5F5F5F5F5F5F5F5F5F5F5F5F5F5F5F5F5F5F5F5F5F5F5F5F5F5F5F5F5F5F5F5F5F5F5F5F5F5F5F5F5F5F5F5F5F5F5F5F5F5F5F5F5F5F5F5F5F5F5E2F5F5F5F5F5F5F5F5E2E2E2F5F5F5F5F5
310
F5F5F5E2F5F5F5F5F5F5F5F5F5F5F5F5F5F5F5F5F5F5F5F5F5F5F5F5F5F5F5F5F5F5F5F5F5F5F5F5F5F5F5F5F5F5F5F5F5F5F5F5F5F5F5F5F5F5F5F5F5F5F5F5F5F5F5F5F5F5F5F5F5F5F5F5F5F5F5F5F5F5F5F5F5F5F5F5F5F5F5F5F5F5F5F5F5F5F5F5F5F5F5F5F5F5F5F5F5F5F5F5F5F5F5F5F5F5F5F5F5F5F5F5F5F5F5
310
F5F5F5F5F5F5F5F5F5F5F5F5F5F5F5F5F5F5F5F5F5F5F5F5F5F5F5F5F5F5F5F5F5F5F5F5E2F5F5F5F5F5F5F5F5E2E2E2F5F5F5F5F5E2F5F5E2F5F5F5F5F5F5F5F5F5F5F5F5F5F5F5F5F5F5F5F5F5F5F5F5F5F5F5F5F5F5F5F5F5F5F5F5F5F5F5F5F5F5F5F5F5F5F5F5F5F5F5F5F5F5F5F5F5F5F5F5F5F5F5F5F5F5F5F5F5F5
310
F5F5F5F5F5F5F5F5F5F5F5F5F5F5F5F5F5F5F5F5F5F5F5F5F5F5F5F5F5F5F5F5F5F5F5F5F5F5F5F5F5F5F5F5F5F5F5F5F5F5F5F5F5F5F5F5F5F5F5F5F5F5F5F5F5F5F5F5F5F5F5F5F5F5F5F5F5F5F5F5F5F5F5F5F5F5F5F5F5E2F5F5E2F5F5F5F5F5E2E2E2F5F5F5F5F5E2F5F5E2F5F5F5F5F5F5F5F5F5F5F5F5F5F5F5F5F5
310
F5F5F5F5F5F5F5F5F5F5F5F5F5F5F5F5F5F5F5F5F5F5F5F5F5F5F5F5F5F5F5F5F5F5F5F5F5F5F5F5F5F5F5F5F5F5F5F5F5F5F5F5F5F5F5F5F5F5F5F5F5F5F5F5F5F5F5F5F5F5F5F5F5F5F5F5F5F5F5F5F5F5F5F5F5F5F5F5F5F5F5F5F5F5F5F5F5F5F5F5F5F5F5F5F5F5F5F5F5F5F5F5F5F5F5F5F5F5F5F5F5F5F5F5F5F5F5
310
F5F5F5F5F5F5F5F5F5F5F5F5F5F5F5E2F5F5E2F5F5F5F5F5E2E2E2F5F5F5F5F5E2F5F5E2E2E2E2E2E2E2E2E2E2E2E2E2E2E2E2E2E2E2E2E2E2E2E2E2E2E2E2E2E2E2E2E2E2E2E2E2E2E2E2E2E2E2E2E2E2E2E2E2E2E2E2E2E2E2E2E2E2E2E2E2E2E2E2E2E2E2E2E2E2E2E2E2E2E2E2E2E2E2E2E2E2E2E2E2E2E2E2E2E2E2E2
310
E2E2E2E2E2E2E2E2E2E2E2E2E2E2E2E2E2E2E2E2E2E2E2E2E2E2E2E2E2E2E2E2E2E2E2E2E2E2E2E2E2E2E2E2E2E2E2E2E2E2E2E2E2E2E2E2E2E2E2E2E2E2E2E2E2E2E2E2E2F5F5E2F5F5F5F5F5E2E2E2F5F5F5F5F5E2F5F5F5F5F5F5F5F5F5F5F5F5F5F5F5E2F5F5F5F5F5F5F5F5F5F5F5F5F5E2F5F5F5F5F5F5F5F5F5F5F5
310
F5E2F5F5F5F5F5F5F5F5F5F5F5F5E2F5F5F5F5F5F5F5F5F5F5F5F5E2E2F5F5F5F5F5F5F5F5F5F5F5F5E2F5F5F5F5F5F5F5F5F5F5F5F5E2E2F5F5F5F5F5F5F5F5F5F5F5F5E2F5F5F5F5F5F5F5F5F5F5F5F5E2F5F5F5F5F5F5F5F5F5F5F5F5E2F5F5F5F5F5F5F5F5F5F5F5F5E2E2F5F5F5F5F5F5F5F5F5F5F5F5F5F5F5E2F5F5
310
F5F5F5E2E2E2F5F5F5F5F5E2F5F5F5F5F5F5F5F5F5F5F5F5F5F5F5E2F5F5F5F5F5F5F5F5F5F5F5F5F5E2F5F5F5F5F5F5F5F5F5F5F5F5E2F5F5F5F5F5F5F5F5F5F5F5F5E2F5F5F5F5F5F5F5F5F5F5F5F5E2E2F5F5F5F5F5F5F5F5F5F5F5F5E2F5F5F5F5F5F5F5F5F5F5F5F5E2F5F5F5F5F5F5F5F5F5F5F5F5F5E2F5F5F5F5F5
310
F5F5F5F5F5F5F5E2F5F5F5F5F5F5F5F5F5F5F5F5E2F5F5F5F5F5F5F5F5F5F5F5F5E2E2F5F5F5F5F5F5F5F5F5F5F5F5F5F5F5E2F5F5F5F5F5E2E2E2F5F5F5F5F5E2F5F5F5F5F5F5F5F5F5F5F5F5F5F5F5F5F5F5F5F5F5F5F5F5F5F5F5F5F5E2F5F5F5F5F5F5F5F5F5F5F5F5F5F5F5F5F5F5F5F5F5F5F5F5F5E2F5F5F5F5F5F5
310
F5F5F5F5F5F5F5F5F5F5F5F5F5F5F5F5F5F5F5F5E2F5F5F5F5F5F5F5F5F5F5F5F5F5F5F5F5F5F5F5F5F5F5F5F5F5F5E2F5F5F5F5F5F5F5F5F5F5F5F5F5F5F5F5F5F5F5F5F5F5F5F5F5E2F5F5F5F5F5F5F5F5F5F5F5F5F5F5F5F5F5F5F5F5F5F5F5F5F5F5F5F5F5E2F5F5F5F5F5E2E2E2F5F5F5F5F5E2F5F5F5F5F5F5F5F5F5
310
F5F5F5F5F5F5F5F5F5F5F5F5F5F5F5F5F5F5F5F5F5F5F5F5F5F5F5F5F5F5F5F5F5F5F5F5F5F5F5F5F5F5F5F5F5F5F5F5F5F5F5F5F5F5F5F5F5F5F5F5F5F5F5F5F5F5F5F5F5F5F5F5F5F5F5F5F5F5F5F5F5F5F5F5F5F5F5F5F5F5F5F5F5F5F5F5F5F5F5F5F5F5F5F5F5F5F5F5F5F5F5F5F5F5F5F5F5F5F5F5F5F5F5F5F5F5F5
310
F5F5F5F5F5F5F5F5F5F5F5F5F5F5F5F5F5F5F5F5F5F5F5F5F5F5F5F5F5E2F5F5F5F5F5E2E2E2F5F5F5F5F5E2E2E2E2E2E2E2E2F5F5F5F5F5F5F5F5F5E2E2E2E2E2E2E2E2E2E2E2E2E2E2E2F5F5F5F5F5F5F5F5E2E2E2E2E2E2E2E2E2E2E2E2E2E2E2E2F5F5F5F5F5F5F5F5E2E2E2E2E2E2E2E2E2E2E2E2E2E2E2F5F5F5F5F5
310
F5F5F5F5E2E2E2E2E2E2E2E2E2E2E2E2E2E2E2F5F5F5F5F5F5F5F5E2E2E2E2E2E2E2E2E2E2E2E2E2E2E2E2F5F5F5F5F5F5F5F5E2E2E2E2E2E2E2E2E2E2E2E2E2E2E2F5F5F5F5F5F5F5F5F5E2E2E2E2E2E2E2E2F5F5F5F5F5E2E2E2F5F5F5F5F5F5F5F5F5F5F5F5F5F5F5F5F5F5F5F5F5F5F5F5F5F5F5F5F5F5F5F5F5F5F5F5
310
F5F5F5F5F5F5F5F5F5F5F5F5F5F5F5F5F5F5F5F5F5F5F5F5F5F5F5F5F5F5F5F5F5F5F5F5F5F5F5F5F5F5F5F5F5F5F5F5F5F5F5F5F5F5F5F5F5F5F5F5F5F5F5F5F5F5F5F5F5F5F5F5F5F5F5F5F5F5F5F5F5F5F5F5F5F5F5F5F5F5F5F5F5F5F5F5F5F5F5F5F5F5F5F5F5F5F5F5F5F5F5F5F5F5F5F5F5F5F5F5F5F5F5F5F5F5F5
310
F5F5F5F5F5F5F5F5F5F5F5F5F5F5E2E2E2F5F5F5F5F5F5F5F5F5F5F5F5F5F5F5F5F5F5F5F5F5F5F5F5F5F5F5F5F5F5F5F5F5F5F5F5F5F5F5F5F5F5F5F5F5F5F5F5F5F5F5F5F5F5F5F5F5F5F5F5F5F5F5F5F5F5F5F5F5F5F5F5F5F5F5F5F5F5F5F5F5F5F5F5F5F5F5F5F5F5F5F5F5F5F5F5F5F5F5F5F5F5F5F5F5F5F5F5F5F5
310
F5F5F5F5F5F5F5F5F5F5F5F5F5F5F5F5F5F5F5F5F5F5F5F5F5F5F5F5F5F5F5F5F5F5F5F5F5F5F5F5F5F5F5F5F5F5F5F5F5F5F5F5F5F5F5F5F5F5F5F5F5F5F5F5F5F5F5E2E2E2F5F5F5F5F5F5F5F5F5F5F5F5F5F5F5F5F5F5F5F5F5F5F5F5F5F5F5F5F5F5F5F5F5F5F5F5F5F5F5F5F5F5F5F5F5F5F5F5F5F5F5F5F5F5F5F5F5
310
F5F5F5F5F5F5F5F5F5F5F5F5F5F5F5F5F5F5F5F5F5F5F5F5F5F5F5F5F5F5F5F5F5F5F5F5F5F5F5F5F5F5F5F5F5F5F5F5F5F5F5F5F5F5F5F5F5F5F5F5F5F5F5F5F5F5F5F5F5F5F5F5F5F5F5F5F5F5F5F5F5F5F5F5F5F5F5F5F5F5F5F5F5F5F5F5F5F5F5F5F5F5F5F5F5F5F5F5F5F5F5F5F5F5F5F5F5F5F5F5E2EFE2E2E2E2E2
310
E2E2E2E2E2E2E2E2E2E2E2E2E2E2E2E2E2E2E2E2E2E2E2E2E2E2E2E2E2E2E2E2E2E2E2E2E2E2E2E2E2E2E2E2E2E2E2E2E2E2E2E2E2E2E2E2E2E2E2E2E2E2E2E2E2E2E2E2E2E2E2E2E2E2E2E2E2E2E2E2E2E2E2E2E2E2E2E2E2E2E2E2E2E2E2E2E2E2E2E2E2E2E2E2E2E2E2E2E2E2E2E2E2E2E2E2E2E2E2E2E2E2E2E2E2E2E2
310
E2E2E2E2E2E2E2E2E2E2E2E2E2E2E2E2E2E2E2E2E2E2E2E2E2E2E2E2E2E2E2E2E2E2E2E2E2E2E2E2E2E2E2E2E2E2E2EF
  0
XRECORD
  5
1C21
102
{ACAD_REACTORS
330
1C20
102
}
330
1C20
100
AcDbXrecord
280
     1
102
MATERIAL
148
0.0
149
0.0
149
0.0
 93
        0
 94
       63
282
     0
 72
     1
 77
     1
171
     1
175
     1
179
     1
273
     0
  0
XRECORD
  5
1C1F
102
{ACAD_REACTORS
330
1C1E
102
}
330
1C1E
100
AcDbXrecord
280
     1
102
MATERIAL
148
0.0
149
0.0
149
0.0
 93
        0
 94
       63
282
     0
 72
     1
 77
     1
171
     1
175
     1
179
     1
273
     0
  0
XRECORD
  5
1C23
102
{ACAD_REACTORS
330
1C22
102
}
330
1C22
100
AcDbXrecord
280
     1
102
MATERIAL
148
0.0
149
0.0
149
0.0
 93
        0
 94
       63
282
     0
 72
     1
 77
     1
171
     1
175
     1
179
     1
273
     0
  0
XRECORD
  5
23A0
102
{ACAD_REACTORS
330
239F
102
}
330
239F
100
AcDbXrecord
280
     1
102
ACAD_ROUNDTRIP_PRE2007_TABLESTYLE
 90
      512
 91
        0
  1

 92
      512
 93
        0
  2

 94
      512
 95
        0
  3

  0
ENDSEC
  0
EOF
